Welcome Guest ( Log In | Register )

> Múspellzheimr - Raukn (2018), Black Metal
post May 12 2018, 12:21:09
Post #1

Аннигилятор пивА
Group Icon
Group: V.I.P
Posts: 52,360
Releases: 16550
From: Koenigsberg - TILZIT
On Forums: 14 years 1 month
Thanks: 365631 time(s)
Russian Federation


(IMG:https://metalarea.org/images/audiocovers/2018_May/acov_tid305848_thumb.jpg)

*Artist: Múspellzheimr
*Album: Raukn
*Year: 2018
*Genre: Black Metal
*Country: Denmark (IMG:https://metalarea.org/forum/style_images/flags/Denmark.png)
*Format: mp3@CBR320kbps
*Size: 111MB

Tracklist:
1. . 07:57
2. . 05:45
3. . 08:44
4. . 06:24
5. . 06:13
6. . 08:33
******************************
Total playing time: 43:36



Extended info


Technical info
(IMG:https://metalarea.org/images/spectrogram/2018_May/54030bec4369b06cc7d8f45d80da1c73.png)
Input File: 02 - Ii.mp3
Channels : 2
Sample Rate : 44100
Precision : 16-bit
Duration : 00:05:45.27 = 15226231 samples = 25895 CDDA sectors
File Size : 16.0M
Bit Rate : 371k
Sample Encoding: MPEG audio (layer I, II or III)
Comments :
Title=II
Artist=MГ»spellzheimr
Album=Raukn
Tracknumber=2
Year=2018



Register


Go to the top of the page
  Insert nick Quick quote
+Quote Post
 
Start new topic
Replies (1 - 10)
post May 12 2018, 12:59:05
Post #2

Аннигилятор пивА
Group Icon
Group: V.I.P
Posts: 52,360
Releases: 16550
From: Koenigsberg - TILZIT
On Forums: 14 years 1 month
Thanks: 365631 time(s)
Russian Federation


MIRROR
Register


Go to the top of the page
  Insert nick Quick quote
+Quote Post
post May 15 2018, 15:15:12
Post #3

Четыре Литра
****
Group: Металариец
Posts: 354
Releases: 0
On Forums: 2 years 8 months
Thanks: 166 time(s)
Unknown


Второй кассетный альбом в этом году от датских чернушников. Звучит на голову сильней полноформата 2017 года.
Go to the top of the page
  Insert nick Quick quote
+Quote Post
post May 26 2018, 20:10:04
Post #4

Четыре Литра
****
Group: Металариец
Posts: 367
Releases: 1
From: Ingrija
On Forums: 12 years 7 months
Thanks: 329 time(s)
Russian Federation


Пожалуй, лучший альбом в жанре этого года.
Go to the top of the page
  Insert nick Quick quote
+Quote Post
post May 26 2018, 21:36:01
Post #5

melofags sniper
**************
Group: Металариец
Posts: 5,188
Releases: 0
On Forums: 12 years 4 months
Thanks: 4075 time(s)
Unknown


QUOTE(mondblut @ May 26 2018, 21:10:04) *
Пожалуй, лучший альбом в жанре этого года.

Which genre? If Black Metal then no.
Go to the top of the page
  Insert nick Quick quote
+Quote Post
post May 26 2018, 21:41:06
Post #6

Самый Тихий Час
**************
Group: Металариец
Posts: 5,974
Releases: 2
On Forums: 10 years 8 months
Thanks: 2768 time(s)
Unknown


7
ЦИТАТА(Incantatore @ 15th May 2018 - 17:15:12) *
Второй кассетный альбом в этом году от датских чернушников. Звучит на голову сильней полноформата 2017 года.

архивы говорят, первый в этом году.
или ты о каких других датских чернушниках?
Go to the top of the page
  Insert nick Quick quote
+Quote Post
post May 27 2018, 03:10:56
Post #7
BAN
Banned till
Jul 16 2020, 15:35:27



Это ж как нужно хотеть назваться Муспелльхеймом, чтоб так извратить слово
Go to the top of the page
  Insert nick Quick quote
+Quote Post
post May 28 2018, 18:14:10
Post #8

Четыре Литра
****
Group: Металариец
Posts: 367
Releases: 1
From: Ingrija
On Forums: 12 years 7 months
Thanks: 329 time(s)
Russian Federation


ЦИТАТА(avather @ May 27 2018, 05:10:56) *
Это ж как нужно хотеть назваться Муспелльхеймом, чтоб так извратить слово


Носители old norse не могли в кириллицу, пришлось им выворачиваться.
Go to the top of the page
  Insert nick Quick quote
+Quote Post
post Jul 31 2018, 20:32:31
Post #9

ретроград
**************
Group: Металариец
Posts: 5,088
Releases: 182
On Forums: 13 years 3 weeks
Thanks: 7720 time(s)
Vatican City


Ага, сильная штука...
Go to the top of the page
  Insert nick Quick quote
+Quote Post
post Dec 3 2019, 08:49:48
Post #10

Black is beautiful
***********
Group: Металариец
Posts: 1,801
Releases: 4
On Forums: 8 years 4 months
Thanks: 364 time(s)
Unknown


Not good sound quality of this record.

Register


Thanks:
(3) Andr, sabr, varlam4,
Go to the top of the page
  Insert nick Quick quote
+Quote Post
post May 3 2020, 19:27:54
Post #11

Самый Тихий Час
**************
Group: Металариец
Posts: 5,974
Releases: 2
On Forums: 10 years 8 months
Thanks: 2768 time(s)
Unknown


Тонко. Для нечастого повторения.
Атмосферно немного xasthur напоминает, но мистика скорее чем депра.
Go to the top of the page
  Insert nick Quick quote
+Quote Post

Reply to this topicStart new topic
1 User(s) are reading this topic (1 Guests and 0 Anonymous Users)
0 Members:

 



- Lo-Fi Version Support form
Copyrights and abuse reports form
Time is now: 15th July 2020 - 03:56:35