Welcome Guest ( Log In | Register )

> Mûspellzheimr - Raukn (2018), Black Metal
post May 12 2018, 12:21:09
Post #1

Аннигилятор пивА
Group Icon
Group: V.I.P
Posts: 52,360
Releases: 16555
From: Koenigsberg - TILZIT
On Forums: 13 years 6 months
Thanks: 363278 time(s)
Russian Federation


(IMG:https://metalarea.org/images/audiocovers/2018_May/acov_tid305848_thumb.jpg)

*Artist: Mûspellzheimr
*Album: Raukn
*Year: 2018
*Genre: Black Metal
*Country: Denmark (IMG:https://metalarea.org/forum/style_images/flags/Denmark.png)
*Format: mp3@CBR320kbps
*Size: 111MB

Tracklist:
1. . 07:57
2. . 05:45
3. . 08:44
4. . 06:24
5. . 06:13
6. . 08:33
******************************
Total playing time: 43:36



Extended info


Technical info
(IMG:https://metalarea.org/images/spectrogram/2018_May/54030bec4369b06cc7d8f45d80da1c73.png)
Input File: 02 - Ii.mp3
Channels : 2
Sample Rate : 44100
Precision : 16-bit
Duration : 00:05:45.27 = 15226231 samples = 25895 CDDA sectors
File Size : 16.0M
Bit Rate : 371k
Sample Encoding: MPEG audio (layer I, II or III)
Comments :
Title=II
Artist=MГ»spellzheimr
Album=Raukn
Tracknumber=2
Year=2018



Register


Go to the top of the page
  Insert nick Quick quote
+Quote Post
 
Start new topic
Replies (1 - 10)
post May 12 2018, 12:59:05
Post #2

Аннигилятор пивА
Group Icon
Group: V.I.P
Posts: 52,360
Releases: 16555
From: Koenigsberg - TILZIT
On Forums: 13 years 6 months
Thanks: 363278 time(s)
Russian Federation


MIRROR
Register


Go to the top of the page
  Insert nick Quick quote
+Quote Post
post May 15 2018, 15:15:12
Post #3

Четыре Литра
****
Group: Металариец
Posts: 354
Releases: 0
On Forums: 2 years 1 month
Thanks: 158 time(s)
Unknown


Второй кассетный альбом в этом году от датских чернушников. Звучит на голову сильней полноформата 2017 года.
Go to the top of the page
  Insert nick Quick quote
+Quote Post
post May 26 2018, 20:10:04
Post #4

Четыре Литра
****
Group: Металариец
Posts: 357
Releases: 1
From: Ingrija
On Forums: 12 years 1 week
Thanks: 314 time(s)
Russian Federation


Пожалуй, лучший альбом в жанре этого года.
Go to the top of the page
  Insert nick Quick quote
+Quote Post
post May 26 2018, 21:36:01
Post #5

Правь статус, ####!111
**************
Group: Металариец
Posts: 4,294
Releases: 0
From: Одесса
On Forums: 11 years 9 months
Thanks: 2556 time(s)
Unknown


QUOTE(mondblut @ May 26 2018, 21:10:04) *
Пожалуй, лучший альбом в жанре этого года.

Which genre? If Black Metal then no.
Go to the top of the page
  Insert nick Quick quote
+Quote Post
post May 26 2018, 21:41:06
Post #6

Самый Тихий Час
**************
Group: Металариец
Posts: 5,817
Releases: 0
On Forums: 10 years 4 weeks
Thanks: 2632 time(s)
Unknown


7
ЦИТАТА(Incantatore @ 15th May 2018 - 17:15:12) *
Второй кассетный альбом в этом году от датских чернушников. Звучит на голову сильней полноформата 2017 года.

архивы говорят, первый в этом году.
или ты о каких других датских чернушниках?
Go to the top of the page
  Insert nick Quick quote
+Quote Post
post May 27 2018, 03:10:56
Post #7

Это просто место… где все подошло к концу.
**************
Group: Металариец
Posts: 5,658
Releases: 0
From: Страны Мамонтов
On Forums: 12 years 9 months
Thanks: 2040 time(s)
Antarctica


Это ж как нужно хотеть назваться Муспелльхеймом, чтоб так извратить слово
Go to the top of the page
  Insert nick Quick quote
+Quote Post
post May 28 2018, 18:14:10
Post #8

Четыре Литра
****
Group: Металариец
Posts: 357
Releases: 1
From: Ingrija
On Forums: 12 years 1 week
Thanks: 314 time(s)
Russian Federation


ЦИТАТА(avather @ May 27 2018, 05:10:56) *
Это ж как нужно хотеть назваться Муспелльхеймом, чтоб так извратить слово


Носители old norse не могли в кириллицу, пришлось им выворачиваться.
Go to the top of the page
  Insert nick Quick quote
+Quote Post
post Jul 31 2018, 20:32:31
Post #9

ретроград
**************
Group: Металариец
Posts: 4,937
Releases: 182
On Forums: 12 years 5 months
Thanks: 7301 time(s)
Vatican City


Ага, сильная штука...
Go to the top of the page
  Insert nick Quick quote
+Quote Post
post Dec 3 2019, 08:49:48
Post #10

Black is beautiful
***********
Group: Металариец
Posts: 1,753
Releases: 4
On Forums: 7 years 9 months
Thanks: 343 time(s)
Unknown


Not good sound quality of this record.

Register
Go to the top of the page
  Insert nick Quick quote
+Quote Post
post Dec 3 2019, 21:43:39
Post #11

Правь статус, ####!111
**************
Group: Металариец
Posts: 4,294
Releases: 0
From: Одесса
On Forums: 11 years 9 months
Thanks: 2556 time(s)
Unknown


QUOTE(An225 @ Dec 3 2019, 08:49:48) *
Not good sound quality of this record.

too late
Go to the top of the page
  Insert nick Quick quote
+Quote Post

Reply to this topicStart new topic
2 User(s) are reading this topic (2 Guests and 0 Anonymous Users)
0 Members:

 



- Lo-Fi Version Support form
Copyrights and abuse reports form
Time is now: 11th December 2019 - 03:59:41