Welcome Guest ( Log In | Register )

> Releases Upload / Добавление релизов

Добавить релиз тут / Click here to add release
Рекомендованные обменники / Recommended file shares

> Mutator - Years Of Pain [ep] (2018), Thrash Metal
post May 13 2018, 09:38:05
Post #1

Правь статус, ####!111
**************
Group: Металариец
Posts: 12,992
Releases: 9240
From: Г.Харьков
On Forums: 6 years 1 week
Thanks: 150149 time(s)
Unknown


(IMG:http://metalarea.org/images/audiocovers/2018_May/acov_tid305867_thumb.jpg)

*Artist: Mutator
*Album: Years Of Pain [ep]
*Year: 2018
*Genre: Thrash Metal
*Country: Netherlands (IMG:http://metalarea.org/forum/style_images/flags/Netherlands.png)
*Format: mp3@CBR320kbps
*Size: 39MB

Tracklist:
01. Sick Society 03:41
02. Revenge 03:50
03. Karma 04:15
04. Ruined for Life 05:15
******************************
Total playing time: 17:01



Extended info
GooglePlay Rip
Alex Mulder - Guitars
Shredded Edd - Vocals
Dave Pennekamp - Bass
Nick Otte - Drums


Technical info
(IMG:http://metalarea.org/images/spectrogram/2018_May/f31eb5bc8e0bd1bc75e85ff3c77c427e.png)
Input File: 03 - Karma.mp3
Channels : 2
Sample Rate : 44100
Precision : 16-bit
Duration : 00:04:15.50 = 11267462 samples = 19162.4 CDDA sectors
File Size : 10.2M
Bit Rate : 320k
Sample Encoding: MPEG audio (layer I, II or III)
Comments :
Title=Karma
Artist=Mutator
Album=Years of Pain
Tracknumber=3
Year=2018
Genre=Thrash Metal



Register


Вернуться к началу страницы
  Insert nick Quick quote
+Цитировать сообщение
 
Создать новую тему
Replies (1 - 4)
post May 13 2018, 15:55:56
Post #2

South Of Heaven /адепт ВУДУ
**************
Group: Металариец
Posts: 12,254
Releases: 7
From: Санкт-Петербург
On Forums: 8 years 1 month
Thanks: 4346 time(s)
Russian Federation


Четыре темы в тему!

Для дебюта и новодела очень даже неплохо.


Thanks:
Вернуться к началу страницы
  Insert nick Quick quote
+Цитировать сообщение
post May 15 2018, 07:30:13
Post #3

South Of Heaven /адепт ВУДУ
**************
Group: Металариец
Posts: 12,254
Releases: 7
From: Санкт-Петербург
On Forums: 8 years 1 month
Thanks: 4346 time(s)
Russian Federation


Тут, кстати, в спектрограмме срез на 16.
Вернуться к началу страницы
  Insert nick Quick quote
+Цитировать сообщение
post May 15 2018, 08:05:42
Post #4

И Ван Дамм По Делам Вашим!
**************
Group: Металариец
Posts: 15,593
Releases: 27
On Forums: 9 years 10 months
Thanks: 8224 time(s)
Honduras


Название команды с анекдотом про родившегося черного ребенка у белой женщины ассоциируется. (IMG:style_emoticons/default/1488.gif)


Thanks:
Вернуться к началу страницы
  Insert nick Quick quote
+Цитировать сообщение
post May 20 2018, 15:12:59
Post #5

Два Литра
**
Group: Завсегдатай
Posts: 172
Releases: 0
On Forums: 6 years 11 months
Thanks: 49 time(s)
Lithuania


4/10 (IMG:style_emoticons/default/22.gif)
Вернуться к началу страницы
  Insert nick Quick quote
+Цитировать сообщение

ОтветитьСоздать новую тему
1 User(s) are reading this topic (1 Guests and 0 Anonymous Users)
0 Members:

 



- Lo-Fi Version Support form
Copyrights and abuse reports form
Time is now: 23rd May 2018 - 09:43:59