Welcome Guest ( Log In | Register )

> Codex Daemonicum - Doctrines Of The Fallen [ep] (2018), Black Metal
post May 13 2018, 10:47:52
Post #1

Правь статус, ####!111
**************
Group: Металариец
Posts: 3,206
Releases: 569
From: Brazil
On Forums: 6 years 3 months
Thanks: 23360 time(s)
Brazil


(IMG:https://metalarea.org/images/audiocovers/2018_May/acov_tid305870_thumb.jpg)

*Artist: Codex Daemonicum
*Album: Doctrines Of The Fallen [ep]
*Year: 2018
*Genre: Black Metal
*Country: Germany (IMG:https://metalarea.org/forum/style_images/flags/Germany.png)
*Format: mp3@CBR320kbps
*Size: 38MB

Tracklist:
1. Invocation of the Earth Spirit
2. The Eye of Iblis
3. Baptized in Apostasy
4. With Serpentine Greed and Leonine Pride
5. Those who Succumb
******************************
Total playing time: 16:01



Extended info
Codex Daemonicums solo recording featuring 4 tracks of supreme German-Greek, black metal. Release date June 15th 2018!!


Technical info
(IMG:https://metalarea.org/images/spectrogram/2018_May/88185cb510a955e50c30e00bbb754a37.png)
Input File: 01 Invocation of the Earth Spirit.mp3
Channels : 2
Sample Rate : 44100
Precision : 16-bit
Duration : 00:01:44.08 = 4589972 samples = 7806.07 CDDA sectors
File Size : 4.16M
Bit Rate : 320k
Sample Encoding: MPEG audio (layer I, II or III)
Comments :
Title=Invocation of the Earth Spirit
Artist=Codex Daemonicum
Album=Doctrines of the Fallen
Tracknumber=1
Year=2018



Register


Вернуться к началу страницы
  Insert nick Quick quote
+Цитировать сообщение
 
Создать новую тему
Replies (1 - 1)
post May 17 2018, 14:39:02
Post #2

MDM-Thrash Metal
**************
Group: Металариец
Posts: 6,684
Releases: 410
From: Одесса
On Forums: 10 years 9 months
Thanks: 12738 time(s)
Ukraine


Register


Thanks:
Вернуться к началу страницы
  Insert nick Quick quote
+Цитировать сообщение

ОтветитьСоздать новую тему
2 User(s) are reading this topic (2 Guests and 0 Anonymous Users)
0 Members:

 



- Lo-Fi Version Support form
Copyrights and abuse reports form
Time is now: 25th May 2018 - 04:27:10