Welcome Guest ( Log In | Register )

> Remnant - P.I.E.C.E.S. (2000), Death Metal (D4)
post May 13 2018, 13:01:20
Post #1

Подвал
**************
Group: Металариец
Posts: 13,594
Releases: 7703
From: Far East (Khabarovsk)
On Forums: 10 years 7 months
Thanks: 74437 time(s)
Russian Federation


(IMG:http://metalarea.org/images/audiocovers/2018_May/acov_tid305882_thumb.JPG)

*Artist: Remnant
*Album: P.I.E.C.E.S.
*Year: 2000
*Genre: Death Metal
*Country: Germany (IMG:http://metalarea.org/forum/style_images/flags/Germany.png)
*Format: mp3@CBR192kbps
*Size: 60MB

Tracklist:
1. Dark Passion / Fearhaed 04:25
2. The Addiction That Makes You Believe / The End 10:15
3. Infinity / Selfhate 08:57
4. Burn / Dead Remnants Of Raped Johanna 06:21
5. Devastating War 06:04
6. Won't You Die 06:08
******************************
Total playing time: 42:10

Technical info
(IMG:http://metalarea.org/images/spectrogram/2018_May/390afd9241bb6e2dbf69126ba20be68f.png)
Input File: 01-Dark Passion - Fearhaed.mp3
Channels : 2
Sample Rate : 44100
Precision : 16-bit
Duration : 00:04:25.10 = 11690910 samples = 19882.5 CDDA sectors
File Size : 8.48M
Bit Rate : 256k
Sample Encoding: MPEG audio (layer I, II or III)
Comments :
Title=Dark Passion / Fearhaed
Artist=Remnant (Ger)
Album=P.I.E.C.E.S.
Tracknumber=01
Year=2000
Genre=Death Metal



Register


Go to the top of the page
  Insert nick Quick quote
+Quote Post
 
Start new topic
Replies (1 - 1)
post May 27 2018, 15:39:18
Post #2

ME[ta]LLOMAN
**************
Group: Металариец
Posts: 4,916
Releases: 3
From: Avdeyevka
On Forums: 13 years 5 months
Thanks: 1859 time(s)
Honduras




Thanks:
Go to the top of the page
  Insert nick Quick quote
+Quote Post

Reply to this topicStart new topic
2 User(s) are reading this topic (2 Guests and 0 Anonymous Users)
0 Members:

 



- Lo-Fi Version Support form
Copyrights and abuse reports form
Time is now: 16th September 2019 - 01:01:12