Welcome Guest ( Log In | Register )

> Rotheads - Sewer Fiends (2018), Old School Death Metal
post May 13 2018, 17:37:57
Post #1

Правь статус, ####!111
**************
Group: Металариец
Posts: 15,297
Releases: 10446
From: Г.Харьков
On Forums: 6 years 6 months
Thanks: 173123 time(s)
Unknown


(IMG:http://metalarea.org/images/audiocovers/2018_May/acov_tid305897_thumb.jpg)

*Artist: Rotheads
*Album: Sewer Fiends
*Year: 2018
*Genre: Old School Death Metal
*Country: Romania (IMG:http://metalarea.org/forum/style_images/flags/Romania.png)
*Format: mp3@CBR320kbps
*Size: 95MB

Tracklist:
1. Sewer Fiends 03:22
2. From the Glowing Goo Rise 06:45
3. Rats in the Walls 06:46
4. Psychic Leech 05:27
5. Servants of the Unlight 04:03
6. The Mad Oracle of Seweropolis 10:52
7. Dance of the Vermin 05:02
******************************
Total playing time: 42:15




Extended info
Spurcăciune Bass (?-2016), Guitars, Vocals
See also: Void Forger
Bîrsatan Bass (2014-2015, 2016-present)
Potaie Drums (2016-present)
See also: ex-Spinecrusher
Omu' Rău Guitars


Technical info
(IMG:http://metalarea.org/images/spectrogram/2018_May/ce99a41572a6bd8e3f413116c64eb7bb.png)
Input File: 04 - Psychic Leech.mp3
Channels : 2
Sample Rate : 44100
Precision : 16-bit
Duration : 00:05:26.42 = 14395210 samples = 24481.6 CDDA sectors
File Size : 13.1M
Bit Rate : 320k
Sample Encoding: MPEG audio (layer I, II or III)
Comments :
Title=Psychic Leech
Artist=Rotheads
Album=Sewer Fiends
Tracknumber=4
Year=2018
Genre=Death Metal



Register


Go to the top of the page
  Insert nick Quick quote
+Quote Post
 
Start new topic
Replies (1 - 6)
post May 14 2018, 07:44:22
Post #2

MDM-Thrash Metal
**************
Group: Металариец
Posts: 7,296
Releases: 423
From: Одесса
On Forums: 11 years 3 months
Thanks: 13869 time(s)
Ukraine


Register


Go to the top of the page
  Insert nick Quick quote
+Quote Post
post May 14 2018, 07:48:55
Post #3

кручу наждак
**************
Group: Металариец
Posts: 3,572
Releases: 92
From: Самара
On Forums: 8 years 6 months
Thanks: 2691 time(s)
Russian Federation


Адовый альбом.


Go to the top of the page
  Insert nick Quick quote
+Quote Post
post Jun 1 2018, 17:16:28
Post #4

Мегаманьяк
***********
Group: Металариец
Posts: 1,502
Releases: 0
From: Украина
On Forums: 9 years 11 months
Thanks: 712 time(s)
Ukraine


Слушаю уже в который раз, очень интересный альбом, со своей изюминкой, со своими фишечками, вот именно что олд-скулл, но очень круто приготовленный, вроде и не уходят так сказать от канонов, но альбом имеет именно своё лицо, и что самое интересное его хочется и хочется слушать вновь и вновь, и с каждым разом он интересней, блин ну круто ведь!!! Не пропускайте ни в коем случае, попробуйте на вкус, шикарное варево!!! Я бы даже сказал ЖЖЖИИИРРРРРРРРРРРРРР!!!


Go to the top of the page
  Insert nick Quick quote
+Quote Post
post Jun 2 2018, 11:35:28
Post #5

for me your flesh
*******
Group: Металариец
Posts: 739
Releases: 0
On Forums: 1 year 4 months
Thanks: 551 time(s)
Unknown


Монотонно и примитивно до безобразия. Однообразные риффы и соло мусолятся на протяжение всего хронометража, будто одна сплошная песня.
Даже для олдскула это слишком блекло и нудно(IMG:style_emoticons/default/21.gif)
Go to the top of the page
  Insert nick Quick quote
+Quote Post
post Sep 18 2018, 01:56:10
Post #6

Четыре Литра
****
Group: Металариец
Posts: 394
Releases: 1
From: АР Крым, Симферополь
On Forums: 10 years 8 months
Thanks: 137 time(s)
Russian Federation


Весьма порадовали румыны, добротное олдскульное валиво с кошерным правильным материалом и саундом что не мало важно!! (IMG:style_emoticons/default/20.gif) (IMG:style_emoticons/default/metaler.gif)
Go to the top of the page
  Insert nick Quick quote
+Quote Post
post Oct 11 2018, 16:37:51
Post #7

Два Литра
**
Group: Завсегдатай
Posts: 136
Releases: 2
From: Екатеринбург
On Forums: 9 years 1 week
Thanks: 80 time(s)
Russian Federation


лося плиз
Go to the top of the page
  Insert nick Quick quote
+Quote Post

Reply to this topicStart new topic
1 User(s) are reading this topic (1 Guests and 0 Anonymous Users)
0 Members:

 



- Lo-Fi Version Support form
Copyrights and abuse reports form
Time is now: 10th December 2018 - 05:04:07