Welcome Guest ( Log In | Register )

 
Reply to this topicStart new topic
> Cystoblastosis & Take That Vile Fiend & Nasty Face & Regular Sized Rudy - Obstreparous Mangling Botheration [split] (2017), Goregrind | Goregrind | Goregrind | Goregrind (D8)(D5)(D7)
post May 14 2018, 13:46:36
Post #1

Serial Uploader
Group Icon
Group: V.I.P
Posts: 33,070
Releases: 31355
From: Lithuania
On Forums: 10 years 3 months
Thanks: 358676 time(s)
Lithuania


(IMG:http://metalarea.org/images/audiocovers/2018_May/acov_tid305919_thumb.jpg)

*Artist: Cystoblastosis & Take That Vile Fiend & Nasty Face & Regular Sized Rudy
*Album: Obstreparous Mangling Botheration [split]
*Year: 2017
*Genre: Goregrind | Goregrind | Goregrind | Goregrind
*Country: Russian Federation (IMG:http://metalarea.org/forum/style_images/flags/Russian%20Federation.png) | Australia (IMG:http://metalarea.org/forum/style_images/flags/Australia.png) | Switzerland (IMG:http://metalarea.org/forum/style_images/flags/Switzerland.png) | United Kingdom (IMG:http://metalarea.org/forum/style_images/flags/United%20Kingdom.png)
*Format: mp3@CBR320kbps
*Size: 51MB

Tracklist:
Cystoblastosis:
01. Heart Abscess Surgery 01:13
02. Amputation Of Gangrenous Toes 00:30
03. The Surgical Management Of Mitral Valve 00:31
04. Congenital Heart Defects 00:33
05. Aortic Stenosis 00:28
06. Effect Of Severe Sepsis On Platelet Count 00:24
07. Chronic Respiratory Insufficiency 00:44
08. Blood Supply To Stomach 00:38
Take That Vile Fiend:
09. Decimation Saturation 00:55
10. Feast On The Beast 00:46
11. Murder Most Foul 01:19
12. Viscous Secretions 00:41
13. Death Blow 00:06
14. Precision Execution 01:07
Nasty Face:
15. Blood-Splattered Wide Open Abdomen (Regurgitate Cover) 00:32
16. Bastards (Dahmer Cover) 00:21
17. Coprophagical Mutilator (Regurgitate Cover) 00:55
18. Vomit-Inducing Phlegm (Embryonic Cryptopathia Cover) 00:48
19. Worshipping Blast (Famine Cover) 01:55
20. Terrorist Scum (Grossel Cover) 00:49
Regular Sized Rudy:
21. Powergore Minceviolence 00:57
22. Relentless Twitcher 01:09
23. Too Much Of Everything 00:52
24. Toe Knife 00:46
25. Canny Standy 00:40
26. Into The Crusher 00:44
******************************
Total playing time: 20:23






Technical info
(IMG:http://metalarea.org/images/spectrogram/2018_May/9a9047944a00ee8fa2a10a5427eb4c0a.png)
Input File: 02. Amputation Of Gangrenous Toes.mp3
Channels : 2
Sample Rate : 44100
Precision : 16-bit
Duration : 00:00:30.36 = 1338744 samples = 2276.78 CDDA sectors
File Size : 1.38M
Bit Rate : 365k
Sample Encoding: MPEG audio (layer I, II or III)
Comments :
Title=02 CYSTOBLASTOSIS - Amputation Of Gangrenous Toes
Artist=Nasty Face
Album=Obstreperous Mangling Botheration 4 way split
Tracknumber=2
Year=2017



Register


Thanks:
Go to the top of the page
  Insert nick Quick quote
+Quote Post

Reply to this topicStart new topic
2 User(s) are reading this topic (2 Guests and 0 Anonymous Users)
0 Members:

 



- Lo-Fi Version Support form
Copyrights and abuse reports form
Time is now: 24th September 2018 - 23:03:07