Welcome Guest ( Log In | Register )

> Releases Upload / Добавление релизов

Добавить релиз тут / Click here to add release
Рекомендованные обменники / Recommended file shares

 
ОтветитьСоздать новую тему
> Regular Sized Rudy - 2017 EP [ep] (2017), Grindcore/Goregrind
post May 14 2018, 13:58:23
Post #1

Serial Uploader
Group Icon
Group: V.I.P
Posts: 32,537
Releases: 30836
From: Lithuania
On Forums: 9 years 11 months
Thanks: 354163 time(s)
Lithuania


(IMG:http://metalarea.org/images/audiocovers/2018_May/acov_tid305920_thumb.jpg)

*Artist: Regular Sized Rudy
*Album: 2017 EP [ep]
*Year: 2017
*Genre: Grindcore/Goregrind
*Country: United Kingdom (IMG:http://metalarea.org/forum/style_images/flags/United%20Kingdom.png)
*Format: mp3@CBR320kbps
*Size: 16MB

Tracklist:
01. Stresiaty 01:18
02. Alopuncha 01:11
03. OG Spesh 00:32
04. Rancid Devourment Of Unknown Contagens 01:12
05. Extreme Fungle Overdose 01:07
06. 1990999 01:23
******************************
Total playing time: 6:43




Technical info
(IMG:http://metalarea.org/images/spectrogram/2018_May/4553747f47c3c81524879082b054ccd6.png)
Input File: 02. Alopuncha.mp3
Channels : 2
Sample Rate : 44100
Precision : 16-bit
Duration : 00:01:11.58 = 3156766 samples = 5368.65 CDDA sectors
File Size : 2.95M
Bit Rate : 330k
Sample Encoding: MPEG audio (layer I, II or III)
Comments :
Title=Alopuncha
Artist=Regular Sized Rudy
Album=2017 EP
Tracknumber=2
Year=2017



Register


Вернуться к началу страницы
  Insert nick Quick quote
+Цитировать сообщение

ОтветитьСоздать новую тему
1 User(s) are reading this topic (1 Guests and 0 Anonymous Users)
0 Members:

 



- Lo-Fi Version Support form
Copyrights and abuse reports form
Time is now: 27th May 2018 - 08:52:04