Welcome Guest ( Log In | Register )

> Forty Legs - The Beast (2018), Sludge/Stoner Metal
post May 14 2018, 14:06:26
Post #1

Serial Uploader
Group Icon
Group: V.I.P
Posts: 33,056
Releases: 31341
From: Lithuania
On Forums: 10 years 3 months
Thanks: 358562 time(s)
Lithuania


(IMG:https://metalarea.org/images/audiocovers/2018_May/acov_tid305921_thumb.jpg)

*Artist: Forty Legs
*Album: The Beast
*Year: 2018
*Genre: Sludge/Stoner Metal
*Country: Barbados (IMG:https://metalarea.org/forum/style_images/flags/Barbados.png)
*Format: mp3@CBR320kbps
*Size: 120MB

Tracklist:
01. Go Quietly
02. Mother Of The Bearded Ones
03. Praying To No One
04. Summon The Guts
05. Kow Tow
06. The Beast
07. Beneath Our Skin
08. Illuminate
09. Towards The Bitter End
10. Don't You
11. Through Our Pain
12. Fermented At The Core
13. Unholy Martyrs
14. The Dead Sea
******************************
Total playing time: 51:57



Technical info
(IMG:https://metalarea.org/images/spectrogram/2018_May/452ae12cc7c79514ad112c643ee8d7a0.png)
Input File: 02. Mother of the Bearded Ones.mp3
Channels : 2
Sample Rate : 44100
Precision : 16-bit
Duration : 00:02:33.33 = 6761853 samples = 11499.8 CDDA sectors
File Size : 6.24M
Bit Rate : 326k
Sample Encoding: MPEG audio (layer I, II or III)
Comments :
Title=Mother of the Bearded Ones
Artist=Forty Legs
Album=The Beast
Tracknumber=2/14
Year=2018
Genre=9
Discnumber=1/1



Register


Go to the top of the page
  Insert nick Quick quote
+Quote Post
 
Start new topic
Replies (1 - 1)
post May 14 2018, 16:32:30
Post #2

Три Литра
***
Group: Завсегдатай
Posts: 249
Releases: 0
On Forums: 9 years 2 months
Thanks: 77 time(s)
Russian Federation


Хороший напористый стонер
Go to the top of the page
  Insert nick Quick quote
+Quote Post

Reply to this topicStart new topic
2 User(s) are reading this topic (2 Guests and 0 Anonymous Users)
0 Members:

 



- Lo-Fi Version Support form
Copyrights and abuse reports form
Time is now: 19th September 2018 - 19:53:01