Welcome Guest ( Log In | Register )

> Marrowlands - At Age's End [ep] (2018), Melodic Doom Metal
post May 14 2018, 14:13:42
Post #1

Serial Uploader
Group Icon
Group: V.I.P
Posts: 33,128
Releases: 31413
From: Lithuania
On Forums: 10 years 4 months
Thanks: 359233 time(s)
Lithuania


(IMG:http://metalarea.org/images/audiocovers/2018_May/acov_tid305922_thumb.jpg)

*Artist: Marrowlands
*Album: At Age's End [ep]
*Year: 2018
*Genre: Melodic Doom Metal
*Country: United States (IMG:http://metalarea.org/forum/style_images/flags/United%20States.png)
*Format: mp3@CBR320kbps
*Size: 50MB

Tracklist:
01. Stolen Years
02. To Bleed Is To Feel
03. Atlas
04. The Blackening
05. Hymn To The Unborn
******************************
Total playing time: 21:33


(IMG:http://metalarea.org/images/youtube.png)

Technical info
(IMG:http://metalarea.org/images/spectrogram/2018_May/5f70f1d5257b91162bccb40f2d50bfa8.png)
Input File: 02. To Bleed Is to Feel.mp3
Channels : 2
Sample Rate : 44100
Precision : 16-bit
Duration : 00:05:01.43 = 13293151 samples = 22607.4 CDDA sectors
File Size : 12.2M
Bit Rate : 324k
Sample Encoding: MPEG audio (layer I, II or III)
Comments :
Title=To Bleed Is to Feel
Artist=Marrowlands
Album=At Age's End
Tracknumber=2/5
Year=2018
Genre=9
Discnumber=1/1



Register


Go to the top of the page
  Insert nick Quick quote
+Quote Post
 
Start new topic
Replies (1 - 1)
post May 31 2018, 09:27:28
Post #2

Forever Underground
**************
Group: Металариец
Posts: 4,965
Releases: 0
On Forums: 3 years 6 months
Thanks: 4401 time(s)
Unknown


Mirror:
Register
Go to the top of the page
  Insert nick Quick quote
+Quote Post

Reply to this topicStart new topic
1 User(s) are reading this topic (1 Guests and 0 Anonymous Users)
0 Members:

 



- Lo-Fi Version Support form
Copyrights and abuse reports form
Time is now: 18th October 2018 - 17:12:50