Welcome Guest ( Log In | Register )

> Little Dead Bertha - Age Of Silence (2018), Melodic Death/Symphonic Black Metal
post May 14 2018, 20:11:44
Post #1

Правь статус, ####!111
**************
Group: Металариец
Posts: 14,321
Releases: 9928
From: Г.Харьков
On Forums: 6 years 4 months
Thanks: 162958 time(s)
Unknown


(IMG:http://metalarea.org/images/audiocovers/2018_May/acov_tid305927_thumb.jpg)

*Artist: Little Dead Bertha
*Album: Age Of Silence
*Year: 2018
*Genre: Melodic Death/Symphonic Black Metal
*Country: Russian Federation (IMG:http://metalarea.org/forum/style_images/flags/Russian%20Federation.png)
*Format: mp3@CBR320kbps
*Size: 92MB

Tracklist:
1. Intro 01:05
2. Heaven for Sinners 05:40
3. Day of Your Life 04:53
4. Age of Silence 04:41
5. Restless 05:35
6. Death, Life, Fall 05:14
7. Storm 06:58
8. Come in My Dreams 05:04
9. No Time to Cry (The Sisters of Mercy cover) 03:12
10. Devils Diner (Lake of Tears cover) 04:14
******************************
Total playing time: 46:36




Extended info
Yuriy Sveshnikov Bass (1994-1995, 1999-present)
Sergey Galushko Guitars (1994-present)
Dmitriy Zamaruev Vocals (1995-1999, 2000-2004, 2010-present)
Viktoria Sysoeva Keyboards (2004-present)
See also: ex-Absenth
Svetlana Galushko Vocals (2006-present)
Roman Kirichenko Drums (2014-present)
See also: ex-Rainwill, ex-Memorial


Technical info
(IMG:http://metalarea.org/images/spectrogram/2018_May/fa4fe964cae8b8be9281d2d8e12c7852.png)
Input File: 02. Heaven for Sinners.mp3
Channels : 2
Sample Rate : 44100
Precision : 16-bit
Duration : 00:05:40.65 = 15022445 samples = 25548.4 CDDA sectors
File Size : 13.6M
Bit Rate : 320k
Sample Encoding: MPEG audio (layer I, II or III)
Comments :
Title=Heaven for Sinners
Artist=Little Dead Bertha
Album=Age of Silence
Tracknumber=2
Year=2018



Register


Go to the top of the page
  Insert nick Quick quote
+Quote Post
2 Pages V  < 1 2  
Start new topic
Replies (30 - 31)
post Aug 7 2018, 15:08:37
Post #31

Микроманьяк
***********
Group: Металариец
Posts: 1,823
Releases: 11
From: Київ
On Forums: 12 years 7 months
Thanks: 874 time(s)
Ukraine


а альбомчик-то оматбанен, вопреки всему
Go to the top of the page
  Insert nick Quick quote
+Quote Post
post Yesterday, 21:56:21
Post #32

Мегаманьяк
***********
Group: Металариец
Posts: 1,931
Releases: 6
From: Kyiv
On Forums: 10 years 10 months
Thanks: 254 time(s)
Ukraine


олдскульный жирдос! качество!!!
Go to the top of the page
  Insert nick Quick quote
+Quote Post

2 Pages V  < 1 2
Reply to this topicStart new topic
2 User(s) are reading this topic (2 Guests and 0 Anonymous Users)
0 Members:

 



- Lo-Fi Version Support form
Copyrights and abuse reports form
Time is now: 24th September 2018 - 23:13:12