Welcome Guest ( Log In | Register )

> Madhouse - Metal Or Die (2018), Heavy Metal
post May 14 2018, 20:28:01
Post #1

Правь статус, ####!111
**************
Group: Металариец
Posts: 15,706
Releases: 10667
From: Г.Харьков
On Forums: 6 years 8 months
Thanks: 177503 time(s)
Unknown


(IMG:http://metalarea.org/images/audiocovers/2018_May/acov_tid305928_thumb.jpg)

*Artist: Madhouse
*Album: Metal Or Die
*Year: 2018
*Genre: Heavy Metal
*Country: Germany (IMG:http://metalarea.org/forum/style_images/flags/Germany.png)
*Format: mp3@CBR320kbps
*Size: 84MB

Tracklist:
01. Against Our Mind
02. Gates of Hell
03. Hellice
04. Machinery
05. Tormentors
06. Back in the Black
07. Demons of Insanity
08. One Way to Glory
09. Metal or Die
10. Psycho God
******************************
Total playing time: 36:42

(IMG:http://metalarea.org/images/youtube.png)


Technical info
(IMG:http://metalarea.org/images/spectrogram/2018_May/c5ba95b66058d4bfa6370f90004e8b6d.png)
Input File: 3 Hellice.mp3
Channels : 2
Sample Rate : 44100
Precision : 16-bit
Duration : 00:03:29.26 = 9228498 samples = 15694.7 CDDA sectors
File Size : 8.44M
Bit Rate : 323k
Sample Encoding: MPEG audio (layer I, II or III)
Comments :
Title=Hellice
Artist=Madhouse
Album=Metal or Die
Tracknumber=3/10
Year=2018
Genre=9
Discnumber=1/1



Register


Go to the top of the page
  Insert nick Quick quote
+Quote Post
 
Start new topic
Replies (1 - 6)
post May 15 2018, 02:28:06
Post #2

Правь статус, ####!111
**************
Group: Металариец
Posts: 15,706
Releases: 10667
From: Г.Харьков
On Forums: 6 years 8 months
Thanks: 177503 time(s)
Unknown


Register
Go to the top of the page
  Insert nick Quick quote
+Quote Post
post May 15 2018, 08:09:04
Post #3

Литр
*
Group: Подсевший
Posts: 65
Releases: 0
On Forums: 10 months 1 week
Thanks: 3 time(s)
Argentina


Thanks!!! (IMG:style_emoticons/default/banana.gif)
Go to the top of the page
  Insert nick Quick quote
+Quote Post
post May 15 2018, 08:27:43
Post #4

South Of Heaven /адепт ВУДУ
**************
Group: Металариец
Posts: 13,163
Releases: 7
From: Санкт-Петербург
On Forums: 8 years 9 months
Thanks: 4820 time(s)
Russian Federation


На архивах трэш указан, где правда?
Go to the top of the page
  Insert nick Quick quote
+Quote Post
post May 15 2018, 08:28:43
Post #5

И Ван Дамм По Делам Вашим!
**************
Group: Металариец
Posts: 16,461
Releases: 27
On Forums: 10 years 6 months
Thanks: 8735 time(s)
Honduras


ЦИТАТА(avkruchinin @ May 15 2018, 10:27:43) *
На архивах трэш указан, где правда?

Истина-где то там.(ц)
Go to the top of the page
  Insert nick Quick quote
+Quote Post
post May 16 2018, 17:07:15
Post #6

Три Литра
***
Group: Завсегдатай
Posts: 229
Releases: 0
From: Kyiv
On Forums: 6 years 9 months
Thanks: 85 time(s)
Ukraine


Нету там трэша, средней паршивости дидовский классик-хевиметал
Go to the top of the page
  Insert nick Quick quote
+Quote Post
post Jul 3 2018, 21:28:27
Post #7

brutalcesar
**************
Group: Металариец
Posts: 17,638
Releases: 67
From: Рязань
On Forums: 10 years 2 days
Thanks: 8940 time(s)
Russian Federation


Жидковато...
Go to the top of the page
  Insert nick Quick quote
+Quote Post

Reply to this topicStart new topic
1 User(s) are reading this topic (1 Guests and 0 Anonymous Users)
0 Members:

 



- Lo-Fi Version Support form
Copyrights and abuse reports form
Time is now: 20th January 2019 - 21:03:07