Welcome Guest ( Log In | Register )

> И неформату есть предел.

Рэп/хип-хоп/шансон/поп удаляются. Для них есть свои порталы.

> Azagatel - SOL [ep] (2018), Dark Folk/Acoustic (D7)
post May 14 2018, 20:32:11
Post #1

Правь статус, ####!616
**************
Group: Металариец
Posts: 4,398
Releases: 3004
From: 55°35’N 38°08’E
On Forums: 9 years 11 months
Thanks: 55905 time(s)
Unknown


(IMG:http://metalarea.org/images/audiocovers/2018_May/acov_tid305929_thumb.jpg)

*Artist: Azagatel
*Album: SOL [ep]
*Year: 2018
*Genre: Dark Folk/Acoustic
*Country: Portugal (IMG:http://metalarea.org/forum/style_images/flags/Portugal.png)
*Format: mp3@CBR320kbps
*Size: 73MB

Tracklist:
1.Samhain 06:25
2.Sol Invictvs 05:53
3.Oestrymnis 05:19
4.Cariocecus 04:05
5.Aliança Granítica (Tribos) 05:11
6.Nostra Terra Pétrea 04:11
******************************
Total playing time: 31:04


(IMG:http://metalarea.org/images/youtube.png)



Extended info
CD, Nekrogoat Heresy Productions (Limited to 200 copies.)


Technical info
(IMG:http://metalarea.org/images/spectrogram/2018_May/73c640a1c887b5b4dae9a7bec88cfa3e.png)
Input File: 01 Samhain.mp3
Channels : 2
Sample Rate : 44100
Precision : 16-bit
Duration : 00:06:25.11 = 16983351 samples = 28883.2 CDDA sectors
File Size : 15.6M
Bit Rate : 324k
Sample Encoding: MPEG audio (layer I, II or III)
Comments :
Title=Samhain
Artist=Azagatel
Album=SOL
Tracknumber=1
Year=2018
Genre=Dark Folk



Register


Go to the top of the page
  Insert nick Quick quote
+Quote Post
 
Start new topic
Replies (1 - 1)
post May 17 2018, 13:05:23
Post #2

Group: Дух
Posts: 1
Releases: 0
From: Bilbau
On Forums: 1 month 6 days
Thanks: 0 time(s)
Spain


Amazing work!! (IMG:style_emoticons/default/pray.gif)
Go to the top of the page
  Insert nick Quick quote
+Quote Post

Reply to this topicStart new topic
1 User(s) are reading this topic (1 Guests and 0 Anonymous Users)
0 Members:

 



- Lo-Fi Version Support form
Copyrights and abuse reports form
Time is now: 23rd June 2018 - 18:40:50