Welcome Guest ( Log In | Register )

> Himelvaruwe - Het Onkenbare [ep] (2018), Atmospheric/Raw Black Metal (D4)
post May 14 2018, 20:46:30
Post #1

Правь статус, ####!616
**************
Group: Металариец
Posts: 4,398
Releases: 3004
From: 55°35’N 38°08’E
On Forums: 10 years 1 month
Thanks: 56372 time(s)
Unknown


(IMG:http://metalarea.org/images/audiocovers/2018_May/acov_tid305930_thumb.jpg)

*Artist: Himelvaruwe
*Album: Het Onkenbare [ep]
*Year: 2018
*Genre: Atmospheric/Raw Black Metal
*Country: Netherlands (IMG:http://metalarea.org/forum/style_images/flags/Netherlands.png)
*Format: mp3@CBR320kbps
*Size: 48MB

Tracklist:
1.Het onkenbare 20:18
******************************
Total playing time: 20:18




Extended info
T. - All instruments, Vocals (Ancient Morass, Kaffaljidhma, Mirre, Olxane)


Technical info
(IMG:http://metalarea.org/images/spectrogram/2018_May/bc048023241b90eb965ed13a9d6b0445.png)
Input File: 01 Het Onkenbare.mp3
Channels : 2
Sample Rate : 44100
Precision : 16-bit
Duration : 00:20:18.18 = 53721782 samples = 91363.6 CDDA sectors
File Size : 48.9M
Bit Rate : 321k
Sample Encoding: MPEG audio (layer I, II or III)
Comments :
Title=Het Onkenbare
Artist=Himelvaruwe
Album=Het Onkenbare
Tracknumber=1
Year=2018
Genre=Black Metal



Register


Go to the top of the page
  Insert nick Quick quote
+Quote Post
 
Start new topic
Replies (1 - 2)
post May 15 2018, 22:31:06
Post #2

Четыре Литра
****
Group: Металариец
Posts: 310
Releases: 2
From: Башкирия! Салават !
On Forums: 10 years 2 months
Thanks: 27 time(s)
Russian Federation


А мне понравилось не обычно , духовно
Go to the top of the page
  Insert nick Quick quote
+Quote Post
post Jun 8 2018, 08:29:34
Post #3

...Only Death Is Real...
**************
Group: Металариец
Posts: 2,651
Releases: 15
On Forums: 8 years 3 weeks
Thanks: 1626 time(s)
Russian Federation


ЦИТАТА(Tratil @ May 16 2018, 02:31:06) *
духовно

(IMG:https://a.d-cd.net/2f1fc3cs-960.jpg)
Update: в общем-то, да.
ЦИТАТА
Lyrical themes: Religion, Theology, Mysticism
Go to the top of the page
  Insert nick Quick quote
+Quote Post

Reply to this topicStart new topic
1 User(s) are reading this topic (1 Guests and 0 Anonymous Users)
0 Members:

 



- Lo-Fi Version Support form
Copyrights and abuse reports form
Time is now: 19th August 2018 - 06:56:09