Welcome Guest ( Log In | Register )

> Releases Upload / Добавление релизов

Добавить релиз тут / Click here to add release
Рекомендованные обменники / Recommended file shares

> Himelvaruwe - Het Onkenbare [ep] (2018), Atmospheric/Raw Black Metal (D4)
post May 14 2018, 20:46:30
Post #1

Правь статус, ####!616
**************
Group: Металариец
Posts: 4,339
Releases: 2950
From: 55°35’N 38°08’E
On Forums: 9 years 10 months
Thanks: 54996 time(s)
Unknown


(IMG:http://metalarea.org/images/audiocovers/2018_May/acov_tid305930_thumb.jpg)

*Artist: Himelvaruwe
*Album: Het Onkenbare [ep]
*Year: 2018
*Genre: Atmospheric/Raw Black Metal
*Country: Netherlands (IMG:http://metalarea.org/forum/style_images/flags/Netherlands.png)
*Format: mp3@CBR320kbps
*Size: 48MB

Tracklist:
1.Het onkenbare 20:18
******************************
Total playing time: 20:18




Extended info
T. - All instruments, Vocals (Ancient Morass, Kaffaljidhma, Mirre, Olxane)


Technical info
(IMG:http://metalarea.org/images/spectrogram/2018_May/bc048023241b90eb965ed13a9d6b0445.png)
Input File: 01 Het Onkenbare.mp3
Channels : 2
Sample Rate : 44100
Precision : 16-bit
Duration : 00:20:18.18 = 53721782 samples = 91363.6 CDDA sectors
File Size : 48.9M
Bit Rate : 321k
Sample Encoding: MPEG audio (layer I, II or III)
Comments :
Title=Het Onkenbare
Artist=Himelvaruwe
Album=Het Onkenbare
Tracknumber=1
Year=2018
Genre=Black Metal



Register


Вернуться к началу страницы
  Insert nick Quick quote
+Цитировать сообщение
 
Создать новую тему
Replies (1 - 1)
post May 15 2018, 22:31:06
Post #2

Четыре Литра
****
Group: Металариец
Posts: 310
Releases: 2
From: Башкирия! Салават !
On Forums: 9 years 11 months
Thanks: 27 time(s)
Russian Federation


А мне понравилось не обычно , духовно
Вернуться к началу страницы
  Insert nick Quick quote
+Цитировать сообщение

ОтветитьСоздать новую тему
2 User(s) are reading this topic (2 Guests and 0 Anonymous Users)
0 Members:

 



- Lo-Fi Version Support form
Copyrights and abuse reports form
Time is now: 25th May 2018 - 04:30:58