Welcome Guest ( Log In | Register )

> Pleasure Of Mutilate - Premonition (2018), Brutal Death Metal
post May 14 2018, 23:01:25
Post #1

Правь статус, ####!111
**************
Group: Металариец
Posts: 14,243
Releases: 9887
From: Г.Харьков
On Forums: 6 years 4 months
Thanks: 162329 time(s)
Unknown


(IMG:http://metalarea.org/images/audiocovers/2018_May/acov_tid305931_thumb.jpg)

*Artist: Pleasure Of Mutilate
*Album: Premonition
*Year: 2018
*Genre: Brutal Death Metal
*Country: Ecuador (IMG:http://metalarea.org/forum/style_images/flags/Ecuador.png)
*Format: mp3@VBR232kbps
*Size: 49MB

Tracklist:
1. Blind Faith 03:01
2. Circle 03:06
3. Sumeria 01:15 instrumental
4. Destroy All Human 03:15
5. Devastacion Apocalyptic 04:21
6. Bing Bang 01:04 instrumental
7. Premonition 03:33
8. Revalation 02:39
9. Lord of Blood 03:00
10. End 00:42 instrumental
******************************
Total playing time: 25:56




Extended info
Scene CD-Rip
Manson Drums
Goro Guitars
Neva Bass
Blaze Vocals


Technical info
(IMG:http://metalarea.org/images/spectrogram/2018_May/fa2f18e3e5fa65db06f47be6ff1a6175.png)
Input File: 01-pleasure_of_mutilate-blind_faith.mp3
Channels : 2
Sample Rate : 44100
Precision : 16-bit
Duration : 00:03:01.76 = 8015616 samples = 13632 CDDA sectors
File Size : 5.54M
Bit Rate : 244k
Sample Encoding: MPEG audio (layer I, II or III)
Comments :
Title=Blind Faith
Artist=Pleasure Of Mutilate
Album=Premonition
Tracknumber=1/10
Year=2018
Genre=Death Metal
Discnumber=1/1



Register


Go to the top of the page
  Insert nick Quick quote
+Quote Post
 
Start new topic
Replies (1 - 1)
post May 20 2018, 16:47:24
Post #2

Правь статус, ####!111
**************
Group: Металариец
Posts: 14,243
Releases: 9887
From: Г.Харьков
On Forums: 6 years 4 months
Thanks: 162329 time(s)
Unknown


Register


Thanks:
Go to the top of the page
  Insert nick Quick quote
+Quote Post

Reply to this topicStart new topic
2 User(s) are reading this topic (2 Guests and 0 Anonymous Users)
0 Members:

 



- Lo-Fi Version Support form
Copyrights and abuse reports form
Time is now: 19th September 2018 - 20:18:53