Welcome Guest ( Log In | Register )

> Releases Upload / Добавление релизов

Добавить релиз тут / Click here to add release
Рекомендованные обменники / Recommended file shares

 
ОтветитьСоздать новую тему
> Portrait Decay - III [demo] (2018), Black Metal
post May 15 2018, 00:08:18
Post #1

Правь статус, ####!616
**************
Group: Металариец
Posts: 4,339
Releases: 2950
From: 55°35’N 38°08’E
On Forums: 9 years 10 months
Thanks: 54996 time(s)
Unknown


(IMG:http://metalarea.org/images/audiocovers/2018_May/acov_tid305933_thumb.jpg)

*Artist: Portrait Decay
*Album: III [demo]
*Year: 2018
*Genre: Black Metal
*Country: Canada (IMG:http://metalarea.org/forum/style_images/flags/Canada.png)
*Format: mp3@CBR320kbps
*Size: 20MB

Tracklist:
1.Memory 02:12
2.Body 02:26
3.Portrait 02:27
******************************
Total playing time: 7:05



Technical info
(IMG:http://metalarea.org/images/spectrogram/2018_May/586e69da321f59dd678397909a3cfd37.png)
Input File: 01 MEMORY.mp3
Channels : 2
Sample Rate : 44100
Precision : 16-bit
Duration : 00:02:12.32 = 5835532 samples = 9924.37 CDDA sectors
File Size : 5.55M
Bit Rate : 335k
Sample Encoding: MPEG audio (layer I, II or III)
Comments :
Title=MEMORY
Artist=PORTRAIT DECAY
Album=III
Tracknumber=1
Year=2018
Genre=Black Metal



Register


Вернуться к началу страницы
  Insert nick Quick quote
+Цитировать сообщение

ОтветитьСоздать новую тему
2 User(s) are reading this topic (2 Guests and 0 Anonymous Users)
0 Members:

 



- Lo-Fi Version Support form
Copyrights and abuse reports form
Time is now: 25th May 2018 - 04:30:10