Welcome Guest ( Log In | Register )

> Releases Upload / Добавление релизов

Добавить релиз тут / Click here to add release
Рекомендованные обменники / Recommended file shares

 
ОтветитьСоздать новую тему
> Septik Onslaught - Fodder For The Apocalypse [ep] (2018), Crossover/Thrash Metal
post May 15 2018, 01:51:15
Post #1

Правь статус, ####!111
**************
Group: Металариец
Posts: 13,060
Releases: 9265
From: Г.Харьков
On Forums: 6 years 2 weeks
Thanks: 150799 time(s)
Unknown


(IMG:http://metalarea.org/images/audiocovers/2018_May/acov_tid305934_thumb.jpg)

*Artist: Septik Onslaught
*Album: Fodder For The Apocalypse [ep]
*Year: 2018
*Genre: Crossover/Thrash Metal
*Country: United States (IMG:http://metalarea.org/forum/style_images/flags/United%20States.png)
*Format: mp3@CBR320kbps
*Size: 31MB

Tracklist:
1. Whore of God 02:27
2. Family Annihilator 02:12
3. 40 Demons 00:47
4. The Rippers 02:58
5. The Hatred 02:03
6. Christ Betrayer 03:05
******************************
Total playing time: 13:32




Extended info
David Gein Guitar
Old Nick Rocha Vocals
Robert "Bobby" Salcido Drums, Bass


Technical info
(IMG:http://metalarea.org/images/spectrogram/2018_May/494a2c9af97577f0eda8d383ec205d94.png)
Input File: 01 - Whore of God.mp3
Channels : 2
Sample Rate : 44100
Precision : 16-bit
Duration : 00:02:27.47 = 6503383 samples = 11060.2 CDDA sectors
File Size : 5.90M
Bit Rate : 320k
Sample Encoding: MPEG audio (layer I, II or III)
Comments :
Title=Whore of God
Artist=Septik Onslaught
Album=Fodder for the Apocalypse
Tracknumber=1
Year=2018
Genre=Thrash Metal



Register


Вернуться к началу страницы
  Insert nick Quick quote
+Цитировать сообщение

ОтветитьСоздать новую тему
1 User(s) are reading this topic (1 Guests and 0 Anonymous Users)
0 Members:

 



- Lo-Fi Version Support form
Copyrights and abuse reports form
Time is now: 27th May 2018 - 08:56:17