Welcome Guest ( Log In | Register )

> Kły - Szczerzenie (2018), Atmospheric Black Metal
post May 15 2018, 03:05:59
Post #1

Правь статус, ####!111
**************
Group: Металариец
Posts: 3,298
Releases: 643
From: Brazil
On Forums: 6 years 7 months
Thanks: 25547 time(s)
Brazil


(IMG:https://metalarea.org/images/audiocovers/2018_May/acov_tid305936_thumb.jpg)

*Artist: Kły
*Album: Szczerzenie
*Year: 2018
*Genre: Atmospheric Black Metal
*Country: Poland (IMG:https://metalarea.org/forum/style_images/flags/Poland.png)
*Format: mp3@CBR320kbps
*Size: 110MB

Tracklist:
1. Bliże 05:22
2. Wypełni 08:18
3. Jeżeli 06:52
4. Pogranicze 07:36
5. Kłysica 09:03
6. Dale 12:08
******************************
Total playing time: 49:19



Extended info
Although KŁY (english: fangs) were established in 1997, the band released their first demo, “Taran-Gai”, only last year. Their first full-length release, “Szczerzenie” consists of six tracks that are difficult to categorise under one genre. At the roots of the album lies melancholic Burzum-like black metal richly interwoven with different sounds. The band themselves compared those different sounds to the music of Hypothermia, Lifelover, Austere, Grey Waters or even the early works of Ulver, Unholy, Katatonia or Anathema. Kły have a broad spectrum of musical influences; however, black metal, the mountains, the Forest and shamanism are the driving force.
credits
released April 20, 2018

Recorded at the turn of 2017/18 at Czyściec Studio.
Mixed and mastered by Nihil.
Intros recorded in Kielce in 1998.


Technical info
(IMG:https://metalarea.org/images/spectrogram/2018_May/a4fd60d2b4370668ad770e046e65240e.png)
Input File: KŁY - Szczerzenie - 01 Bliże.mp3
Channels : 2
Sample Rate : 44100
Precision : 16-bit
Duration : 00:05:12.98 = 13802242 samples = 23473.2 CDDA sectors
File Size : 12.6M
Bit Rate : 322k
Sample Encoding: MPEG audio (layer I, II or III)
Comments :
Title=BliЕјe
Artist=KЕЃY
Album=Szczerzenie
Tracknumber=1
Year=2018



Register


Go to the top of the page
  Insert nick Quick quote
+Quote Post
 
Start new topic
Replies (1 - 2)
post May 15 2018, 14:59:37
Post #2

Три Литра
***
Group: Завсегдатай
Posts: 257
Releases: 0
On Forums: 10 months 3 weeks
Thanks: 97 time(s)
Unknown


Если нравится Блэк на польском языке, то как минимум стоит ознакомится с этим альбомом. Слушать интересно, очень эмоционально звучат разные виды вокала.
Go to the top of the page
  Insert nick Quick quote
+Quote Post
post Aug 27 2018, 12:26:18
Post #3

кручу наждак
**************
Group: Металариец
Posts: 3,392
Releases: 89
From: Самара
On Forums: 8 years 4 months
Thanks: 2535 time(s)
Russian Federation


Ни блэка, ни атмосферы... Хрень невнятная.
Go to the top of the page
  Insert nick Quick quote
+Quote Post

Reply to this topicStart new topic
2 User(s) are reading this topic (2 Guests and 0 Anonymous Users)
0 Members:

 



- Lo-Fi Version Support form
Copyrights and abuse reports form
Time is now: 19th September 2018 - 19:43:53