Welcome Guest ( Log In | Register )

> Releases Upload / Добавление релизов

Добавить релиз тут / Click here to add release
Рекомендованные обменники / Recommended file shares

> Mammon - Luna De Sangre (2017), Black Metal (D4)
post May 15 2018, 03:35:34
Post #1

Правь статус, ####!111
**************
Group: Металариец
Posts: 13,032
Releases: 9252
From: Г.Харьков
On Forums: 6 years 1 week
Thanks: 150441 time(s)
Unknown


(IMG:http://metalarea.org/images/audiocovers/2018_May/acov_tid305937_thumb.jpg)

*Artist: Mammon
*Album: Luna De Sangre
*Year: 2017
*Genre: Black Metal
*Country: United States (IMG:http://metalarea.org/forum/style_images/flags/United%20States.png)
*Format: mp3@CBR320kbps
*Size: 80MB

Tracklist:
1. Dirge 02:48
2. Fiend's Mouth 07:03
3. In and Out of Rhythm 04:11
4. Children of Early Graves 07:03
5. Peasant King 03:41
6. Breath of Blasphemy 09:50
******************************
Total playing time: 34:36




Extended info
John Ozimek Bass
Jeffrey Mireles Vocals
Brandon Elliott Drums
Antonio Mendez Guitars


Technical info
(IMG:http://metalarea.org/images/spectrogram/2018_May/4326e2b460856123803e224f20e67803.png)
Input File: 02. Fiend\'s Mouth.mp3
Channels : 2
Sample Rate : 44100
Precision : 16-bit
Duration : 00:00:00.42 = 18654 samples = 31.7245 CDDA sectors
File Size : 17.1M
Bit Rate : 323M
Sample Encoding: MPEG audio (layer I, II or III)
Comments :
Title=Fiend's Mouth
Artist=Mammon
Album=Luna de Sangre
Tracknumber=2/6
Year=2018-18-20
Discnumber=1/1



Register


Вернуться к началу страницы
  Insert nick Quick quote
+Цитировать сообщение
 
Создать новую тему
Replies (1 - 1)
post May 15 2018, 09:21:05
Post #2

Правь статус, ####!111
**************
Group: Металариец
Posts: 13,032
Releases: 9252
From: Г.Харьков
On Forums: 6 years 1 week
Thanks: 150441 time(s)
Unknown


Register


Thanks:
Вернуться к началу страницы
  Insert nick Quick quote
+Цитировать сообщение

ОтветитьСоздать новую тему
1 User(s) are reading this topic (1 Guests and 0 Anonymous Users)
0 Members:

 



- Lo-Fi Version Support form
Copyrights and abuse reports form
Time is now: 25th May 2018 - 04:32:35