Welcome Guest ( Log In | Register )

> Khasm - Trinity (2018), Death/Thrash Metal/Hardcore
post May 15 2018, 04:06:10
Post #1
BAN
Banned till
Oct 20 2018, 09:33:06



(IMG:http://metalarea.org/images/audiocovers/2018_May/acov_tid305938_thumb.jpg)

*Artist: Khasm
*Album: Trinity
*Year: 2018
*Genre: Death/Thrash Metal/Hardcore
*Country: France (IMG:http://metalarea.org/forum/style_images/flags/France.png)
*Format: mp3@CBR320kbps
*Size: 81MB

Tracklist:
1. Shadows 04:50
2. Spartan 03:58
3. Rise 04:26
4. Cursed 04:35
5. Deathstroke 04:03
6. Trinity Part 1:Beyond 04:17
7. Trinity Part 2:Serenity 01:46
8. Trinity Part 3:Rage 04:33
9. Dedication 03:03
******************************
Total playing time: 35:31





Extended info
Matt Bass
Laurent Drums
Philippe Guitars
Christophe Vocals


Technical info
(IMG:http://metalarea.org/images/spectrogram/2018_May/b0f7b3c34c4018e12484c7778601336e.png)
Input File: 04. Cursed.mp3
Channels : 2
Sample Rate : 44100
Precision : 16-bit
Duration : 00:00:00.28 = 12128 samples = 20.6259 CDDA sectors
File Size : 11.1M
Bit Rate : 323M
Sample Encoding: MPEG audio (layer I, II or III)
Comments :
Title=Cursed
Artist=KHASM
Album=Trinity
Tracknumber=4/9
Year=2018-18-20
Discnumber=1/1



Register


Go to the top of the page
  Insert nick Quick quote
+Quote Post
 
Start new topic
Replies (1 - 1)
post May 15 2018, 09:10:57
Post #2
BAN
Banned till
Oct 20 2018, 09:33:06



Register


Thanks:
Go to the top of the page
  Insert nick Quick quote
+Quote Post

Reply to this topicStart new topic
1 User(s) are reading this topic (1 Guests and 0 Anonymous Users)
0 Members:

 



- Lo-Fi Version Support form
Copyrights and abuse reports form
Time is now: 18th October 2018 - 16:29:47