Welcome Guest ( Log In | Register )

> Releases Upload / Добавление релизов

Добавить релиз тут / Click here to add release
Рекомендованные обменники / Recommended file shares

> Noen Hater Oss - Noen Hater Oss (2018), Black Metal
post May 15 2018, 04:31:46
Post #1

Правь статус, ####!111
**************
Group: Металариец
Posts: 13,060
Releases: 9265
From: Г.Харьков
On Forums: 6 years 2 weeks
Thanks: 150800 time(s)
Unknown


(IMG:http://metalarea.org/images/audiocovers/2018_May/acov_tid305939_thumb.jpg)

*Artist: Noen Hater Oss
*Album: Noen Hater Oss
*Year: 2018
*Genre: Black Metal
*Country: Norway (IMG:http://metalarea.org/forum/style_images/flags/Norway.png)
*Format: mp3@CBR320kbps
*Size: 80MB

Tracklist:
1. Det Var en Gang (intro)
2. Om Natt og Tåke
3. Vetter
4. Blodslinjer
5. For Fanden og Fedreland
6. De Kalde de Døde
7. Om Torner og Tro
8. Hvil i Fred Norge
******************************
Total playing time: 34:43




Technical info
(IMG:http://metalarea.org/images/spectrogram/2018_May/f16ca106064f1e53efc1e4375ab25a68.png)
Input File: 02. Om natt og t?ke.mp3
Channels : 2
Sample Rate : 44100
Precision : 16-bit
Duration : 00:00:00.24 = 10716 samples = 18.2245 CDDA sectors
File Size : 9.83M
Bit Rate : 324M
Sample Encoding: MPEG audio (layer I, II or III)
Comments :
Title=Om natt og tГҐke
Artist=Noen hater oss
Album=Noen hater oss
Tracknumber=2/8
Year=2018-18-20
Discnumber=1/1



Register


Вернуться к началу страницы
  Insert nick Quick quote
+Цитировать сообщение
 
Создать новую тему
Replies (1 - 3)
post May 15 2018, 09:18:16
Post #2

Правь статус, ####!111
**************
Group: Металариец
Posts: 13,060
Releases: 9265
From: Г.Харьков
On Forums: 6 years 2 weeks
Thanks: 150800 time(s)
Unknown


Register


Thanks:
Вернуться к началу страницы
  Insert nick Quick quote
+Цитировать сообщение
post May 15 2018, 12:08:51
Post #3

Маньяк
**********
Group: Металариец
Posts: 1,000
Releases: 0
From: Dnipro
On Forums: 9 years 10 months
Thanks: 256 time(s)
Ukraine


Это нужно опробовать ухом.
Вернуться к началу страницы
  Insert nick Quick quote
+Цитировать сообщение
post May 15 2018, 14:49:25
Post #4

Два Литра
**
Group: Завсегдатай
Posts: 173
Releases: 0
On Forums: 7 months 1 day
Thanks: 64 time(s)
United States


Вроде бы все на своих местах, но все равно ухом не за что зацепится, не хватает ярких моментов.
Вернуться к началу страницы
  Insert nick Quick quote
+Цитировать сообщение

ОтветитьСоздать новую тему
1 User(s) are reading this topic (1 Guests and 0 Anonymous Users)
0 Members:

 



- Lo-Fi Version Support form
Copyrights and abuse reports form
Time is now: 27th May 2018 - 09:00:20