Welcome Guest ( Log In | Register )

> Releases Upload / Добавление релизов

Добавить релиз тут / Click here to add release
Рекомендованные обменники / Recommended file shares

> Kekal - Deeper Underground (2018), Avant-Garde/Extreme Progressive Metal
post May 15 2018, 05:40:30
Post #1

Аннигилятор пивА
Group Icon
Group: V.I.P
Posts: 46,692
Releases: 14016
From: Koenigsberg - TILZIT
On Forums: 11 years 11 months
Thanks: 310882 time(s)
Russian Federation


(IMG:https://metalarea.org/images/audiocovers/2018_May/acov_tid305940_thumb.jpg)

*Artist: Kekal
*Album: Deeper Underground
*Year: 2018
*Genre: Avant-Garde/Extreme Progressive Metal
*Country: Indonesia (IMG:https://metalarea.org/forum/style_images/flags/Indonesia.png)
*Format: mp3@CBR320kbps
*Size: 99MB

Tracklist:
1. Root of All Evil 06:27
2. Sanity Away from Sanity 05:24
3. Speed of God 04:45
4. Rotten in the House 04:07
5. Deeper Underground 05:04
6. The Many Faces of Your Face 04:58
7. Revealment (feat. Voxlucis) 03:35
8. Triple Evils 05:28
9. End of Hegemony 06:01
******************************
Total playing time: 45:49




Extended info
"Deeper Underground" is Kekal's 11th full-length album, and it marks with the return of deep energetic simplicity derived from the band's extreme metal and crust roots, while maintaining its electronic music atmosphere as the basis for dialectical and emotional expositions of the lyrics.
The music examines the depths of philosophical and spiritual knowledge of existence, not in order to reserve all rights, but to reverse all wrongs. As metallic as it is synthesized, as organic as it is electronic, Kekal remains true to its core psyche in delivering music not only to feed our brains, but also to stir our souls.


Technical info
(IMG:https://metalarea.org/images/spectrogram/2018_May/cad233564b463a89900723b568b3993d.png)
Input File: 07 Revealment (feat. Voxlucis).mp3
Channels : 2
Sample Rate : 44100
Precision : 16-bit
Duration : 00:03:35.85 = 9518853 samples = 16188.5 CDDA sectors
File Size : 8.67M
Bit Rate : 321k
Sample Encoding: MPEG audio (layer I, II or III)
Comments :
Title=Revealment (feat. Voxlucis)
Artist=Kekal
Album=Deeper Underground
Tracknumber=7/9
Year=2018
Genre=9
Discnumber=1/1



Register


Вернуться к началу страницы
  Insert nick Quick quote
+Цитировать сообщение
 
Создать новую тему
Replies (1 - 1)
post May 15 2018, 09:13:49
Post #2

Аннигилятор пивА
Group Icon
Group: V.I.P
Posts: 46,692
Releases: 14016
From: Koenigsberg - TILZIT
On Forums: 11 years 11 months
Thanks: 310882 time(s)
Russian Federation


mirror
Register



Вернуться к началу страницы
  Insert nick Quick quote
+Цитировать сообщение

ОтветитьСоздать новую тему
2 User(s) are reading this topic (2 Guests and 0 Anonymous Users)
0 Members:

 



- Lo-Fi Version Support form
Copyrights and abuse reports form
Time is now: 25th May 2018 - 04:31:53