Welcome Guest ( Log In | Register )

> Attrition - Vengeance [ep] (2018), Black/Death Metal (D4)
post May 15 2018, 09:30:42
Post #1

Правь статус, ####!616
**************
Group: Металариец
Posts: 4,404
Releases: 3004
From: 55°35’N 38°08’E
On Forums: 10 years 2 months
Thanks: 56494 time(s)
Unknown


(IMG:http://metalarea.org/images/audiocovers/2018_May/acov_tid305941_thumb.jpg)

*Artist: Attrition
*Album: Vengeance [ep]
*Year: 2018
*Genre: Black/Death Metal
*Country: Canada (IMG:http://metalarea.org/forum/style_images/flags/Canada.png)
*Format: mp3@CBR320kbps
*Size: 52MB

Tracklist:
1. War Spirit 04:58
2. Genocide Enforcer 02:43
3. Devastation Elite 03:11
4. Bludgeoned 03:33
5. Armed to Fight (Ready to Die) 02:47
6. Vengeance 04:59
******************************
Total playing time: 22:11



Technical info
(IMG:http://metalarea.org/images/spectrogram/2018_May/ba76e3a3dfbb594152c57b0ede8024a4.png)
Input File: 01 WAR SPIRIT.mp3
Channels : 2
Sample Rate : 44100
Precision : 16-bit
Duration : 00:04:58.69 = 13172185 samples = 22401.7 CDDA sectors
File Size : 12.1M
Bit Rate : 324k
Sample Encoding: MPEG audio (layer I, II or III)
Comments :
Title=WAR SPIRIT
Artist=Attrition
Album=VENGEANCE
Tracknumber=1
Year=2018
Genre=Black/Death Metal



Register


Go to the top of the page
  Insert nick Quick quote
+Quote Post
 
Start new topic
Replies (1 - 1)
post May 15 2018, 19:21:19
Post #2

Правь статус, ####!616
**************
Group: Металариец
Posts: 4,404
Releases: 3004
From: 55°35’N 38°08’E
On Forums: 10 years 2 months
Thanks: 56494 time(s)
Unknown


Полный артворк кассеты с NWN форума.
(IMG:https://b.radikal.ru/b17/1805/49/230ada5be60d.jpg)

Go to the top of the page
  Insert nick Quick quote
+Quote Post

Reply to this topicStart new topic
2 User(s) are reading this topic (2 Guests and 0 Anonymous Users)
0 Members:

 



- Lo-Fi Version Support form
Copyrights and abuse reports form
Time is now: 19th September 2018 - 20:43:41