Welcome Guest ( Log In | Register )

> Releases Upload / Добавление релизов

Добавить релиз тут / Click here to add release
Рекомендованные обменники / Recommended file shares

 
ОтветитьСоздать новую тему
> Kokophrolic - Cannabidruide [compilation] (2018), Brutal Death Metal
post May 15 2018, 09:56:43
Post #1

Serial Uploader
Group Icon
Group: V.I.P
Posts: 32,509
Releases: 30792
From: Lithuania
On Forums: 9 years 11 months
Thanks: 353692 time(s)
Lithuania


(IMG:https://metalarea.org/images/audiocovers/2018_May/acov_tid305942_thumb.jpg)

*Artist: Kokophrolic
*Album: Cannabidruide [compilation]
*Year: 2018
*Genre: Brutal Death Metal
*Country: Canada (IMG:https://metalarea.org/forum/style_images/flags/Canada.png)
*Format: mp3@CBR320kbps
*Size: 76MB

Tracklist:
01. Cannabidruide 03:47
02. L'Excision Du Subconscient 03:40
03. Seppuku 03:14
04. Jumonji Giri 02:41
05. Catastrophery 02:14
06. Humaniac 03:05
07. Disturbance of Consciousness 01:31
08. Paracusia 02:51
09. Abolition Du Cortex 02:52
10. Neuroleptic Malignant Syndrome 07:12
******************************
Total playing time: 33:07




Technical info
(IMG:https://metalarea.org/images/spectrogram/2018_May/050dcbe85a1870abf20bb2b96bd0df9b.png)
Input File: 02. L'excision Du Subconscient.mp3
Channels : 2
Sample Rate : 44100
Precision : 16-bit
Duration : 00:03:40.89 = 9741205 samples = 16566.7 CDDA sectors
File Size : 8.84M
Bit Rate : 320k
Sample Encoding: MPEG audio (layer I, II or III)
Comments :
Title=L'excision Du Subconscient
Artist=Kokophrolic
Album=Cannabidruide
Tracknumber=2/10
Year=2018



Register


Thanks:
Вернуться к началу страницы
  Insert nick Quick quote
+Цитировать сообщение

ОтветитьСоздать новую тему
1 User(s) are reading this topic (1 Guests and 0 Anonymous Users)
0 Members:

 



- Lo-Fi Version Support form
Copyrights and abuse reports form
Time is now: 25th May 2018 - 04:30:23