Welcome Guest ( Log In | Register )

> Godless Enthropia - Tetracyclic Dominion (2018), Technical Death Metal
post May 15 2018, 10:41:23
Post #1

Правь статус, ####!111
**************
Group: Металариец
Posts: 13,943
Releases: 9732
From: Г.Харьков
On Forums: 6 years 3 months
Thanks: 159632 time(s)
Unknown


(IMG:http://metalarea.org/images/audiocovers/2018_May/acov_tid305943_thumb.jpg)

*Artist: Godless Enthropia
*Album: Tetracyclic Dominion
*Year: 2018
*Genre: Technical Death Metal
*Country: Italy (IMG:http://metalarea.org/forum/style_images/flags/Italy.png)
*Format: mp3@CBR320kbps
*Size: 139MB

Tracklist:
1. Al-Qalyah 01:45
2. Mother of Cain 03:18
3. Into the Asylum 05:19
4. Witch Burning Princess 03:48
5. Unpredictable Dementia (Mechanical Disease) 05:11
6. Erase, Delete, Annihilate 04:42
7. Dysphemic Phænomenons 02:34
8. Third Eye, Cauterized 05:14
9. Solecism I (feat. Lord Jotun) 04:11
10. Cause of Disease (Sprouts of New Hate) 03:15
11. Palace of Fornication 04:07
12. Adynaton 06:17
13. Solecism II 03:40
14. The Heights of Eidos (Mother of Cain pt. II) 06:09
******************************
Total playing time: 59:30




Extended info









Davide​ ​Ponzetto​ ​-​ ​Lead​ ​&​ ​backing​ ​vocals
Simone​ ​Cavalera​ ​-​ ​Lead​ ​&​ ​rhythm​ ​guitars
Wael​ ​Ben​ ​Halima​ ​-​ ​Lead​ ​&​ ​rhythm​ ​guitars
Claudio​ ​Colla​ ​-​ ​Bass​ ​guitar
Simone​ ​Cottura​ ​-​ ​Drums


Technical info
(IMG:http://metalarea.org/images/spectrogram/2018_May/2c461003e6022d41b741753ad9413f4f.png)
Input File: 02 - Mother of Cain.mp3
Channels : 2
Sample Rate : 44100
Precision : 16-bit
Duration : 00:03:18.58 = 8757158 samples = 14893.1 CDDA sectors
File Size : 8.19M
Bit Rate : 330k
Sample Encoding: MPEG audio (layer I, II or III)
Comments :
Title=Mother of Cain
Artist=Godless Enthropia
Album=Tetracyclic Dominion
Tracknumber=2/14
Year=2018



Register


Go to the top of the page
  Insert nick Quick quote
+Quote Post
 
Start new topic
Replies (1 - 1)
post May 15 2018, 13:31:58
Post #2

Правь статус, ####!111
**************
Group: Металариец
Posts: 13,943
Releases: 9732
From: Г.Харьков
On Forums: 6 years 3 months
Thanks: 159632 time(s)
Unknown


Register


Go to the top of the page
  Insert nick Quick quote
+Quote Post

Reply to this topicStart new topic
1 User(s) are reading this topic (1 Guests and 0 Anonymous Users)
0 Members:

 



- Lo-Fi Version Support form
Copyrights and abuse reports form
Time is now: 19th August 2018 - 06:55:39