Welcome Guest ( Log In | Register )

> Releases Upload / Добавление релизов

Добавить релиз тут / Click here to add release
Рекомендованные обменники / Recommended file shares

> Tim's Favourite - We, The Willing (2018), Progressive/Heavy Metal
post May 15 2018, 11:00:37
Post #1

Serial Uploader
Group Icon
Group: V.I.P
Posts: 32,509
Releases: 30792
From: Lithuania
On Forums: 9 years 11 months
Thanks: 353691 time(s)
Lithuania


(IMG:http://metalarea.org/images/audiocovers/2018_May/acov_tid305944_thumb.jpg)

*Artist: Tim's Favourite
*Album: We, The Willing
*Year: 2018
*Genre: Progressive/Heavy Metal
*Country: Belgium (IMG:http://metalarea.org/forum/style_images/flags/Belgium.png)
*Format: mp3@CBR320kbps
*Size: 170MB

Tracklist:
01. The Capital Lie
02. The Day Free Will Was Disproven
03. Darlings We Probably Should Have Killed But Didn't Have The Guts To Do So
04. Galilei Was A Believer (Dicussion Closed)
05. No Means No
06. A Legacy
07. Narrative
08. Cashdance
09. This Lot
10. The Unbearable Lightness Of The New Atheism
11. (W)hole
12. Requiem For A Dream
******************************
Total playing time: 1:13:44



Technical info
(IMG:http://metalarea.org/images/spectrogram/2018_May/783c6c69ace528c7b4b9edb5b1e4f3f2.png)
Input File: 02. The Day Free Will Was Disproven.mp3
Channels : 2
Sample Rate : 44100
Precision : 16-bit
Duration : 00:06:30.34 = 17213774 samples = 29275.1 CDDA sectors
File Size : 15.7M
Bit Rate : 322k
Sample Encoding: MPEG audio (layer I, II or III)
Comments :
Title=The Day Free Will Was Disproven
Artist=Tim's Favourite
Album=We, the Willing
Tracknumber=2/12
Year=2018
Genre=17
Discnumber=1/1



Register


Thanks:
Вернуться к началу страницы
  Insert nick Quick quote
+Цитировать сообщение
 
Создать новую тему
Replies (1 - 1)
post May 15 2018, 21:53:21
Post #2

MDM-Thrash Metal
**************
Group: Металариец
Posts: 6,684
Releases: 410
From: Одесса
On Forums: 10 years 9 months
Thanks: 12738 time(s)
Ukraine


Register


Thanks:
(1) ace73pq,
Вернуться к началу страницы
  Insert nick Quick quote
+Цитировать сообщение

ОтветитьСоздать новую тему
1 User(s) are reading this topic (1 Guests and 0 Anonymous Users)
0 Members:

 



- Lo-Fi Version Support form
Copyrights and abuse reports form
Time is now: 25th May 2018 - 04:29:31