Welcome Guest ( Log In | Register )

> Powerglove - Continue? (2018), Power Metal
post May 15 2018, 11:10:41
Post #1

Serial Uploader
Group Icon
Group: V.I.P
Posts: 33,056
Releases: 31341
From: Lithuania
On Forums: 10 years 3 months
Thanks: 358562 time(s)
Lithuania


(IMG:https://metalarea.org/images/audiocovers/2018_May/acov_tid305945_thumb.jpg)

*Artist: Powerglove
*Album: Continue?
*Year: 2018
*Genre: Power Metal
*Country: United States (IMG:https://metalarea.org/forum/style_images/flags/United%20States.png)
*Format: mp3@CBR320kbps
*Size: 177MB

Tracklist:
01. Kraid's Lair
02. Under The Sea (Feat. Marc Hudson)
03. Snake Man
04. Kirby (Feat. Reece Miller)
05. Guile's Theme
06. Mario Minor 2
07. Highwind Takes To The Skies
08. MegaMan 3 Intro
09. Clockwork
10. Spark Mandrill
11. J-E-N-O-V-A
12. Chrono Trigger
13. Ninja Gaiden (Feat. Kana Dehara)
14. Acoustic Medley (Acoustic)
15. Under The Sea (Instrumental)
******************************
Total playing time: 1:16:39

(IMG:https://metalarea.org/images/myspace.png)


Technical info
(IMG:https://metalarea.org/images/spectrogram/2018_May/5d14382cb84d3890b96716a492c6a5b7.png)
Input File: 02. Under the Sea (feat. Marc Hudson).mp3
Channels : 2
Sample Rate : 44100
Precision : 16-bit
Duration : 00:03:28.35 = 9188191 samples = 15626.2 CDDA sectors
File Size : 8.47M
Bit Rate : 325k
Sample Encoding: MPEG audio (layer I, II or III)
Comments :
Title=Under the Sea (feat. Marc Hudson)
Artist=Powerglove
Album=Continue?
Tracknumber=2/15
Year=2018
Genre=9
Discnumber=1/1



Register


Go to the top of the page
  Insert nick Quick quote
+Quote Post
 
Start new topic
Replies (1 - 2)
post May 15 2018, 21:52:06
Post #2

MDM-Thrash Metal
**************
Group: Металариец
Posts: 7,061
Releases: 412
From: Одесса
On Forums: 11 years 1 month
Thanks: 13439 time(s)
Ukraine


Register
Go to the top of the page
  Insert nick Quick quote
+Quote Post
post Jul 3 2018, 21:29:14
Post #3

brutalcesar
**************
Group: Металариец
Posts: 17,579
Releases: 67
From: Рязань
On Forums: 9 years 8 months
Thanks: 8812 time(s)
Russian Federation


(IMG:style_emoticons/default/hmm.gif)
Go to the top of the page
  Insert nick Quick quote
+Quote Post

Reply to this topicStart new topic
2 User(s) are reading this topic (2 Guests and 0 Anonymous Users)
0 Members:

 



- Lo-Fi Version Support form
Copyrights and abuse reports form
Time is now: 19th September 2018 - 19:16:51