Welcome Guest ( Log In | Register )

> Releases Upload / Добавление релизов

Добавить релиз тут / Click here to add release
Рекомендованные обменники / Recommended file shares

> Pánico Al Miedo - Formador (2018), Thrash/Death Metal
post May 15 2018, 11:11:29
Post #1

Правь статус, ####!111
**************
Group: Металариец
Posts: 13,060
Releases: 9265
From: Г.Харьков
On Forums: 6 years 2 weeks
Thanks: 150800 time(s)
Unknown


(IMG:http://metalarea.org/images/audiocovers/2018_May/acov_tid305946_thumb.jpg)

*Artist: Pánico Al Miedo
*Album: Formador
*Year: 2018
*Genre: Thrash/Death Metal
*Country: Spain (IMG:http://metalarea.org/forum/style_images/flags/Spain.png)
*Format: mp3@CBR320kbps
*Size: 123MB

Tracklist:
1. Intro - Popol Vuh 00:56
2. Formador 05:52
3. La fuente 04:01
4. Hermanos de sangre 04:50
5. Cebos vivos 03:46
6. Rompe el cepo 03:44
7. Bautizado por la arrogancia 05:50
8. Puños 03:50
9. No voy a perder 03:07
10. Asfixiar con verbo 03:44
11. El final de la grandeza 03:46
12. Outro - Popol Vuh 03:33
13. Formador 05:57
******************************
Total playing time: 52:56





Extended info






Jordi Creus Guitars
Marc Jufré Vocals
Alfred González Morales Drums
Gerard Comellas Bass

First album by this mighty and original new band PÁNICO AL MIEDO from Barcelona, Spain. This work has been cooked over a low heat, featuring a mix of nuances that leads to a dish with a marked character. The style of the band moves between 80-90's Florida death metal and San Francisco Bay Area's thrash metal. With very personal touches of originality they achieve a result with a strong attitude that is reinfoced by the particluarity of singing in Spanish. It will be appreciated by fans of Testament, Death, Atheist, Obituary, Autopsy, Sepultura. With a production and mix by Juan Urteaga (Vile, Testament, Cattle Decapitation, Machine Head, Exodus, Heathen) at his California based Trident Studios, USA, and a master by Jens Borgren (Bloodbath, Opeth, Amon Amarth, Paradise Lost, Katatonia, Kreator) at his Fascination Street in Sweden, band rounded off this work with the solos of great guitarists such as James Murphy (Obituary, Death, Testament) at the track ‘Formador’ and Bobby Koelble (Death) in ‘Cebos Vivos’ and bonus ‘Formador’. "We have thus managed to bring together for the first time in a record these two legendary guitarists from DEATH". And if this weren’t enough, the cherry on the cake is added by the amazing cover and logo by the mythical American illustrator Ed Repka (Dark Angel, 3 Inches Of Blood, Atheist, Death, Venom, Massacre, Vio-lence), author behind Megadeth’s most famous covers as well as their mascot, Vic Rattlehead, and key designer in the Hellraiser's saga. All music and lyrics by Jordi Creus except intro and outro. Intro and outro music by Oscar Araujo.


Technical info
(IMG:http://metalarea.org/images/spectrogram/2018_May/90f917f6ef81e97dedc19ff68f7ab852.png)
Input File: 03 - La Fuente.mp3
Channels : 2
Sample Rate : 44100
Precision : 16-bit
Duration : 00:04:02.18 = 10680006 samples = 18163.3 CDDA sectors
File Size : 9.87M
Bit Rate : 326k
Sample Encoding: MPEG audio (layer I, II or III)
Comments :
Title=La Fuente
Artist=PГЎnico Al Miedo
Album=Formador
Tracknumber=3/13
Year=2018



Register


Вернуться к началу страницы
  Insert nick Quick quote
+Цитировать сообщение
 
Создать новую тему
Replies (1 - 2)
post May 15 2018, 13:05:05
Post #2

Правь статус, ####!111
**************
Group: Металариец
Posts: 13,060
Releases: 9265
From: Г.Харьков
On Forums: 6 years 2 weeks
Thanks: 150800 time(s)
Unknown


Register


Thanks:
Вернуться к началу страницы
  Insert nick Quick quote
+Цитировать сообщение
post May 15 2018, 13:36:01
Post #3

\m/
Group Icon
Group: S-moderation team
Posts: 7,396
Releases: 19
From: Петропавловск-Камчатский
On Forums: 8 years 11 months
Thanks: 6620 time(s)
Russian Federation


узнаю кисть мастера.


Thanks:
Вернуться к началу страницы
  Insert nick Quick quote
+Цитировать сообщение

ОтветитьСоздать новую тему
2 User(s) are reading this topic (2 Guests and 0 Anonymous Users)
0 Members:

 



- Lo-Fi Version Support form
Copyrights and abuse reports form
Time is now: 27th May 2018 - 08:58:30