Welcome Guest ( Log In | Register )

 
Reply to this topicStart new topic
> Aetranok - Kingdoms Of The Black Sepulcher (2018), Black Metal
post May 15 2018, 11:41:42
Post #1

Serial Uploader
Group Icon
Group: V.I.P
Posts: 33,056
Releases: 31341
From: Lithuania
On Forums: 10 years 3 months
Thanks: 358562 time(s)
Lithuania


(IMG:http://metalarea.org/images/audiocovers/2018_May/acov_tid305947_thumb.jpg)

*Artist: Aetranok
*Album: Kingdoms Of The Black Sepulcher
*Year: 2018
*Genre: Black Metal
*Country: United States (IMG:http://metalarea.org/forum/style_images/flags/United%20States.png)
*Format: mp3@CBR320kbps
*Size: 99MB

Tracklist:
01. Ov Precipice And Bestial Purity
02. Signum Eios Barathrum
03. Kingdoms Of The Black Sepulcher
04. The Lament Of Seraphs
05. Towers Of Arezura
06. Infernal Vestiges
07. Liber Khao Ad Veritas
******************************
Total playing time: 43:09



(IMG:http://metalarea.org/images/youtube.png)

Extended info









Technical info
(IMG:http://metalarea.org/images/spectrogram/2018_May/9d05968263eedb73368ee8c7a05551a6.png)
Input File: 02. Signum Eios Barathrum.mp3
Channels : 2
Sample Rate : 44100
Precision : 16-bit
Duration : 00:05:29.38 = 14525746 samples = 24703.6 CDDA sectors
File Size : 13.3M
Bit Rate : 322k
Sample Encoding: MPEG audio (layer I, II or III)
Comments :
Title=Signum Eios Barathrum
Artist=Aetranok
Album=Kingdoms of the Black Sepulcher
Tracknumber=2/7
Year=2018



Register


Go to the top of the page
  Insert nick Quick quote
+Quote Post

Reply to this topicStart new topic
2 User(s) are reading this topic (2 Guests and 0 Anonymous Users)
0 Members:

 



- Lo-Fi Version Support form
Copyrights and abuse reports form
Time is now: 19th September 2018 - 19:17:17