Welcome Guest ( Log In | Register )

 
Reply to this topicStart new topic
> Magogmagore - Akelarre [ep] (2018), Brutal Death Metal/Goregrind
post May 15 2018, 12:28:34
Post #1

Serial Uploader
Group Icon
Group: V.I.P
Posts: 33,122
Releases: 31406
From: Lithuania
On Forums: 10 years 4 months
Thanks: 359193 time(s)
Lithuania


(IMG:http://metalarea.org/images/audiocovers/2018_May/acov_tid305948_thumb.jpg)

*Artist: Magogmagore
*Album: Akelarre [ep]
*Year: 2018
*Genre: Brutal Death Metal/Goregrind
*Country: United Kingdom (IMG:http://metalarea.org/forum/style_images/flags/United%20Kingdom.png)
*Format: mp3@CBR320kbps
*Size: 45MB

Tracklist:
01. Akelarre 04:05
02. Matanbuchus 04:28
03. Domini Canes 03:00
04. The Baptism Of Wisdom 03:06
05. The Element Of Nihility 04:34
******************************
Total playing time: 19:13




Technical info
(IMG:http://metalarea.org/images/spectrogram/2018_May/8c305f108842e8a9df8eff4cee8c26d7.png)
Input File: 02. Matanbuchus.mp3
Channels : 2
Sample Rate : 44100
Precision : 16-bit
Duration : 00:04:28.41 = 11836749 samples = 20130.5 CDDA sectors
File Size : 10.9M
Bit Rate : 324k
Sample Encoding: MPEG audio (layer I, II or III)
Comments :
Title=Matanbuchus
Artist=Magogmagore
Album=Akelarre
Tracknumber=2
Year=2018



Register


Go to the top of the page
  Insert nick Quick quote
+Quote Post

Reply to this topicStart new topic
1 User(s) are reading this topic (1 Guests and 0 Anonymous Users)
0 Members:

 



- Lo-Fi Version Support form
Copyrights and abuse reports form
Time is now: 17th October 2018 - 05:53:47