Welcome Guest ( Log In | Register )

> Releases Upload / Добавление релизов

Добавить релиз тут / Click here to add release
Рекомендованные обменники / Recommended file shares

 
ОтветитьСоздать новую тему
> Springdusk - A Journey Through Misery [demo] (2002), Melodic Death/Doom Metal
post May 15 2018, 12:46:15
Post #1

горечь и пустота
*******
Group: Металариец
Posts: 720
Releases: 26
From: Minsk (Blr)
On Forums: 10 years 11 months
Thanks: 658 time(s)
Unknown


(IMG:http://metalarea.org/images/audiocovers/2018_May/acov_tid305949.jpg)

*Artist: Springdusk
*Album: A Journey Through Misery [demo]
*Year: 2002
*Genre: Melodic Death/Doom Metal
*Country: Sweden (IMG:http://metalarea.org/forum/style_images/flags/Sweden.png)
*Format: mp3@VBR295kbps
*Size: 44MB

Tracklist:
1. Intro - Psychorian Waves 00:41
2. Moulded by Sorrow 06:28
3. When Agony Speaks 03:42
4. Wither in Silence 06:49
5. Live in Misery 03:01
******************************
Total playing time: 20:41

Extended info
Self-released demo, rip from CD-R (not lossy mastered). Cover scans (not pro-printed) included.


Technical info
(IMG:http://metalarea.org/images/spectrogram/2018_May/7aad6cdee6a003bca53ac75a04386d06.png)
Input File: 02. Moulded By Sorrow.mp3
Channels : 2
Sample Rate : 44100
Precision : 16-bit
Duration : 00:06:28.26 = 17122134 samples = 29119.3 CDDA sectors
File Size : 14.4M
Bit Rate : 297k
Sample Encoding: MPEG audio (layer I, II or III)
Comments :
Title=Moulded By Sorrow
Artist=Springdusk
Album=A Journey Through Misery [Demo]
Tracknumber=02
Year=2002



Register


Вернуться к началу страницы
  Insert nick Quick quote
+Цитировать сообщение

ОтветитьСоздать новую тему
2 User(s) are reading this topic (2 Guests and 0 Anonymous Users)
0 Members:

 



- Lo-Fi Version Support form
Copyrights and abuse reports form
Time is now: 25th May 2018 - 04:31:59