Welcome Guest ( Log In | Register )

> Releases Upload / Добавление релизов

Добавить релиз тут / Click here to add release
Рекомендованные обменники / Recommended file shares

 
ОтветитьСоздать новую тему
> Deflorated Eye Sockets - Nauseating Cadavers [ep] (2018), Goregrind/Noisegrind
post May 15 2018, 13:15:41
Post #1

Serial Uploader
Group Icon
Group: V.I.P
Posts: 32,537
Releases: 30836
From: Lithuania
On Forums: 9 years 11 months
Thanks: 354163 time(s)
Lithuania


(IMG:http://metalarea.org/images/audiocovers/2018_May/acov_tid305951_thumb.jpg)

*Artist: Deflorated Eye Sockets
*Album: Nauseating Cadavers [ep]
*Year: 2018
*Genre: Goregrind/Noisegrind
*Country: Russian Federation (IMG:http://metalarea.org/forum/style_images/flags/Russian%20Federation.png)
*Format: mp3@CBR320kbps
*Size: 170MB

Tracklist:
01. Untitled 01 00:23
02. Untitled 02 00:33
03. Untitled 03 00:24
04. Untitled 04 00:32
05. Untitled 05 00:26
06. Untitled 06 00:22
07. Untitled 07 00:30
08. Untitled 08 00:23
09. Untitled 09 00:28
10. Untitled 10 00:43
11. Untitled 11 00:33
12. Untitled 12 00:28
13. Untitled 13 00:23
14. Untitled 14 00:18
15. Untitled 15 00:31
******************************
Total playing time: 6:57


(IMG:http://metalarea.org/images/youtube.png)

Technical info
(IMG:http://metalarea.org/images/spectrogram/2018_May/ec7a59118140b6f7c727a46d3e0636bf.png)
Input File: 02. Untitled 02.mp3
Channels : 2
Sample Rate : 44100
Precision : 16-bit
Duration : 00:00:33.02 = 1456226 samples = 2476.57 CDDA sectors
File Size : 1.39M
Bit Rate : 337k
Sample Encoding: MPEG audio (layer I, II or III)
Comments :
Title=Untitled 02
Artist=Deflorated Eye Sockets
Album=Nauseating Cadavers
Tracknumber=2
Year=2018



Register


Thanks:
Вернуться к началу страницы
  Insert nick Quick quote
+Цитировать сообщение

ОтветитьСоздать новую тему
2 User(s) are reading this topic (2 Guests and 0 Anonymous Users)
0 Members:

 



- Lo-Fi Version Support form
Copyrights and abuse reports form
Time is now: 27th May 2018 - 08:51:48