Welcome Guest ( Log In | Register )

> Miniatures - Trazos Inexactos Por Un Cuerpo Gris Buscando La Excelencia (2018), Progressive/Heavy/Groove Metal
post May 15 2018, 13:43:49
Post #1

Serial Uploader
Group Icon
Group: V.I.P
Posts: 33,381
Releases: 31651
From: Lithuania
On Forums: 10 years 6 months
Thanks: 361615 time(s)
Lithuania


(IMG:http://metalarea.org/images/audiocovers/2018_May/acov_tid305954_thumb.jpg)

*Artist: Miniatures
*Album: Trazos Inexactos Por Un Cuerpo Gris Buscando La Excelencia
*Year: 2018
*Genre: Progressive/Heavy/Groove Metal
*Country: Mexico (IMG:http://metalarea.org/forum/style_images/flags/Mexico.png)
*Format: mp3@CBR320kbps
*Size: 105MB

Tracklist:
01. Emotional Crystals 05:53
02. Inhale 05:23
03. Donde El Sol Quema 03:36
04. Gris 05:02
05. La Crónica De Un Instante 05:22
06. Sumergido 06:03
07. Pasos Milimétricos 14:17
******************************
Total playing time: 45:36


(IMG:http://metalarea.org/images/youtube.png)

Technical info
(IMG:http://metalarea.org/images/spectrogram/2018_May/d05d7abc2b4036849552e02ce8d17802.png)
Input File: 02. Inhale.mp3
Channels : 2
Sample Rate : 44100
Precision : 16-bit
Duration : 00:05:23.85 = 14281653 samples = 24288.5 CDDA sectors
File Size : 13.1M
Bit Rate : 323k
Sample Encoding: MPEG audio (layer I, II or III)
Comments :
Title=Inhale
Artist=Miniatures
Album=Trazos Inexactos por un Cuerpo Gris Buscando la Excelencia
Tracknumber=2/7
Year=2018



Register


Go to the top of the page
  Insert nick Quick quote
+Quote Post
 
Start new topic
Replies (1 - 2)
post May 16 2018, 11:34:57
Post #2

Литр
*
Group: Подсевший
Posts: 64
Releases: 0
On Forums: 9 years 2 months
Thanks: 7 time(s)
Unknown


Неплохо. Бодренько
Go to the top of the page
  Insert nick Quick quote
+Quote Post
post May 17 2018, 17:31:38
Post #3

Пять Литров
*****
Group: Металариец
Posts: 402
Releases: 0
On Forums: 11 years 11 months
Thanks: 51 time(s)
Russian Federation


1,5,6 можно послушать.Остальное нудятина.Прог грув,чуток мат метал.Любят в диссонансы уходить.Хэви не заметил.Заметил отголоски Сепультуры,Мешуги,Годжиры.Альбом выдержанный,но в целом не очень.Но на группу однозначно стоит обратить внимание,вдруг кому то понравится.7/10.
Go to the top of the page
  Insert nick Quick quote
+Quote Post

Reply to this topicStart new topic
1 User(s) are reading this topic (1 Guests and 0 Anonymous Users)
0 Members:

 



- Lo-Fi Version Support form
Copyrights and abuse reports form
Time is now: 10th December 2018 - 09:15:22