Welcome Guest ( Log In | Register )

> Kollapsed - The Gathering Storm (2018), Sludge/Doom Metal
post May 15 2018, 13:53:10
Post #1

Serial Uploader
Group Icon
Group: V.I.P
Posts: 33,065
Releases: 31350
From: Lithuania
On Forums: 10 years 3 months
Thanks: 358649 time(s)
Lithuania


(IMG:http://metalarea.org/images/audiocovers/2018_May/acov_tid305955_thumb.jpg)

*Artist: Kollapsed
*Album: The Gathering Storm
*Year: 2018
*Genre: Sludge/Doom Metal
*Country: Sweden (IMG:http://metalarea.org/forum/style_images/flags/Sweden.png)
*Format: mp3@CBR320kbps
*Size: 74MB

Tracklist:
01. Trial By Fire
02. With Eyes Wide Open
03. The Mistake
04. Seduction
05. The Sky Is Burning
******************************
Total playing time: 32:36




Technical info
(IMG:http://metalarea.org/images/spectrogram/2018_May/3d0659e896c2f886a9542c437ebc4f9d.png)
Input File: 02. With Eyes Wide Open.mp3
Channels : 2
Sample Rate : 44100
Precision : 16-bit
Duration : 00:07:18.59 = 19341687 samples = 32894 CDDA sectors
File Size : 17.5M
Bit Rate : 320k
Sample Encoding: MPEG audio (layer I, II or III)
Comments :
Title=With Eyes Wide Open
Artist=Kollapsed
Album=The Gathering Storm
Tracknumber=2/5
Year=2018



Register


Go to the top of the page
  Insert nick Quick quote
+Quote Post
 
Start new topic
Replies (1 - 1)
post May 15 2018, 14:57:51
Post #2

Шесть Литров
******
Group: Металариец
Posts: 652
Releases: 0
On Forums: 10 years 11 months
Thanks: 235 time(s)
Belarus


Go to the top of the page
  Insert nick Quick quote
+Quote Post

Reply to this topicStart new topic
1 User(s) are reading this topic (1 Guests and 0 Anonymous Users)
0 Members:

 



- Lo-Fi Version Support form
Copyrights and abuse reports form
Time is now: 24th September 2018 - 01:35:51