Welcome Guest ( Log In | Register )

> Releases Upload / Добавление релизов

Добавить релиз тут / Click here to add release
Рекомендованные обменники / Recommended file shares

 
ОтветитьСоздать новую тему
> Voidthrone - Kur (2018), Black/Death Metal
post May 15 2018, 14:00:59
Post #1

Serial Uploader
Group Icon
Group: V.I.P
Posts: 32,509
Releases: 30792
From: Lithuania
On Forums: 9 years 11 months
Thanks: 353692 time(s)
Lithuania


(IMG:http://metalarea.org/images/audiocovers/2018_May/acov_tid305956_thumb.jpg)

*Artist: Voidthrone
*Album: Kur
*Year: 2018
*Genre: Black/Death Metal
*Country: United States (IMG:http://metalarea.org/forum/style_images/flags/United%20States.png)
*Format: mp3@CBR320kbps
*Size: 57MB

Tracklist:
01. Modern Hellfire 01:25
02. Kur 07:56
03. Phantasm Epoch 05:42
04. Their Recursive Communion 09:10
******************************
Total playing time: 24:13




Technical info
(IMG:http://metalarea.org/images/spectrogram/2018_May/24238876ef4dfe6b79695aa76d5a9da7.png)
Input File: 02-voidthrone-kur-62205e90.mp3
Channels : 2
Sample Rate : 44100
Precision : 16-bit
Duration : 00:07:56.47 = 21012283 samples = 35735.2 CDDA sectors
File Size : 19.6M
Bit Rate : 329k
Sample Encoding: MPEG audio (layer I, II or III)
Comments :
Title=Kur
Artist=Voidthrone
Album=Kur
Tracknumber=2/4
Year=2018
Genre=Black Metal



Register


Вернуться к началу страницы
  Insert nick Quick quote
+Цитировать сообщение

ОтветитьСоздать новую тему
2 User(s) are reading this topic (2 Guests and 0 Anonymous Users)
0 Members:

 



- Lo-Fi Version Support form
Copyrights and abuse reports form
Time is now: 25th May 2018 - 04:32:17