Welcome Guest ( Log In | Register )

 
Reply to this topicStart new topic
> Festering Boils - Let Stagnant Corpses Lie [ep] (2018), Goregrind
post May 15 2018, 14:28:42
Post #1

Serial Uploader
Group Icon
Group: V.I.P
Posts: 32,863
Releases: 31159
From: Lithuania
On Forums: 10 years 1 month
Thanks: 356963 time(s)
Lithuania


(IMG:http://metalarea.org/images/audiocovers/2018_May/acov_tid305957_thumb.jpg)

*Artist: Festering Boils
*Album: Let Stagnant Corpses Lie [ep]
*Year: 2018
*Genre: Goregrind
*Country: United States (IMG:http://metalarea.org/forum/style_images/flags/United%20States.png)
*Format: mp3@CBR320kbps
*Size: 8MB

Tracklist:
01. Let Stagnant Corpses Lie 01:09
02. Predated By Mortification 01:04
03. Pulsating Larvae 01:07
******************************
Total playing time: 3:20



Technical info
(IMG:http://metalarea.org/images/spectrogram/2018_May/69dcde206d00a2d5d5a82d517f98f42e.png)
Input File: 02. Predated By Mortification.mp3
Channels : 2
Sample Rate : 44100
Precision : 16-bit
Duration : 00:01:04.95 = 2864119 samples = 4870.95 CDDA sectors
File Size : 2.81M
Bit Rate : 347k
Sample Encoding: MPEG audio (layer I, II or III)
Comments :
Title=Predated By Mortification
Artist=Festering Boils
Album=Let Stagnant Corpses Lie
Tracknumber=2
Year=2018



Register


Thanks:
Go to the top of the page
  Insert nick Quick quote
+Quote Post

Reply to this topicStart new topic
1 User(s) are reading this topic (1 Guests and 0 Anonymous Users)
0 Members:

 



- Lo-Fi Version Support form
Copyrights and abuse reports form
Time is now: 22nd July 2018 - 06:11:39