Welcome Guest ( Log In | Register )

> Spratek - Odpojen (2018), Progressive Metal
post May 15 2018, 14:53:54
Post #1

Serial Uploader
Group Icon
Group: V.I.P
Posts: 32,863
Releases: 31159
From: Lithuania
On Forums: 10 years 1 month
Thanks: 356963 time(s)
Lithuania


(IMG:http://metalarea.org/images/audiocovers/2018_May/acov_tid305958_thumb.jpg)

*Artist: Spratek
*Album: Odpojen
*Year: 2018
*Genre: Progressive Metal
*Country: Czech Republic (IMG:http://metalarea.org/forum/style_images/flags/Czech%20Republic.png)
*Format: mp3@CBR320kbps
*Size: 134MB

Tracklist:
01. Kruh 03:40
02. Černá Hvězda 04:49
03. Zkoušíme Stát 05:13
04. Skály 04:45
05. Anděl Fabio 04:06
06. Horem Dolem 05:03
07. V Pasti 04:27
08. Jsem Odpojen 04:06
09. Snílek 03:52
10. Souznění 04:44
11. Moře 05:17
12. Má Milá 04:35
13. Nabít Z Děl 03:32
******************************
Total playing time: 58:09



Technical info
(IMG:http://metalarea.org/images/spectrogram/2018_May/fd1c9f73fd2862c69add634f79381404.png)
Input File: 02. Černá Hvězda.mp3
Channels : 2
Sample Rate : 44100
Precision : 16-bit
Duration : 00:04:49.94 = 12786222 samples = 21745.3 CDDA sectors
File Size : 11.6M
Bit Rate : 320k
Sample Encoding: MPEG audio (layer I, II or III)
Comments :
Title=ДЊernГЎ HvД›zda
Artist=Spratek
Album=Odpojen
Tracknumber=2/13
Year=2018
Genre=Metal
Discnumber=1/1



Register


Go to the top of the page
  Insert nick Quick quote
+Quote Post
 
Start new topic
Replies (1 - 1)
post May 16 2018, 08:08:26
Post #2

hearer & reader
**************
Group: Металариец
Posts: 6,533
Releases: 83
From: Moscow
On Forums: 10 years 10 months
Thanks: 6470 time(s)
Russian Federation


Диджея на заявленном SC слушать не советую.
Послушал тут кусками - https://www.supraphonline.cz/album/394605-odpojen
Авангард. На чешском - забавно. Не более.


Thanks:
(1) merfo,
Go to the top of the page
  Insert nick Quick quote
+Quote Post

Reply to this topicStart new topic
1 User(s) are reading this topic (1 Guests and 0 Anonymous Users)
0 Members:

 



- Lo-Fi Version Support form
Copyrights and abuse reports form
Time is now: 22nd July 2018 - 06:13:20