Welcome Guest ( Log In | Register )

 
Reply to this topicStart new topic
> Festering Boils - Masterclass In Sadomasochism [ep] (2018), Goregrind
post May 15 2018, 15:05:59
Post #1

Serial Uploader
Group Icon
Group: V.I.P
Posts: 33,065
Releases: 31350
From: Lithuania
On Forums: 10 years 3 months
Thanks: 358649 time(s)
Lithuania


(IMG:http://metalarea.org/images/audiocovers/2018_May/acov_tid305959_thumb.jpg)

*Artist: Festering Boils
*Album: Masterclass In Sadomasochism [ep]
*Year: 2018
*Genre: Goregrind
*Country: United States (IMG:http://metalarea.org/forum/style_images/flags/United%20States.png)
*Format: mp3@CBR320kbps
*Size: 13MB

Tracklist:
01. Masterclass In Sadomasochism 01:58
02. Conjoined 03:00
03. Throatfuck Degradation 00:38
******************************
Total playing time: 5:36



Technical info
(IMG:http://metalarea.org/images/spectrogram/2018_May/9476f21b6a43d612c03f88dfcb008697.png)
Input File: 02. Conjoined.mp3
Channels : 2
Sample Rate : 44100
Precision : 16-bit
Duration : 00:03:00.13 = 7943777 samples = 13509.8 CDDA sectors
File Size : 7.36M
Bit Rate : 327k
Sample Encoding: MPEG audio (layer I, II or III)
Comments :
Title=Conjoined
Artist=Festering Boils
Album=Masterclass In Sadomasochism
Tracknumber=2
Year=2018



Register


Go to the top of the page
  Insert nick Quick quote
+Quote Post

Reply to this topicStart new topic
1 User(s) are reading this topic (1 Guests and 0 Anonymous Users)
0 Members:

 



- Lo-Fi Version Support form
Copyrights and abuse reports form
Time is now: 24th September 2018 - 02:02:11