Welcome Guest ( Log In | Register )

> Releases Upload / Добавление релизов

Добавить релиз тут / Click here to add release
Рекомендованные обменники / Recommended file shares

> Children Of The Reptile - The End (2018), Heavy Metal
post May 15 2018, 16:03:36
Post #1

Serial Uploader
Group Icon
Group: V.I.P
Posts: 32,460
Releases: 30766
From: Lithuania
On Forums: 9 years 11 months
Thanks: 353390 time(s)
Lithuania


(IMG:http://metalarea.org/images/audiocovers/2018_May/acov_tid305960_thumb.jpg)

*Artist: Children Of The Reptile
*Album: The End
*Year: 2018
*Genre: Heavy Metal
*Country: United States (IMG:http://metalarea.org/forum/style_images/flags/United%20States.png)
*Format: mp3@CBR320kbps
*Size: 109MB

Tracklist:
01. Gravemaster 04:22
02. Maneater Mildred 04:38
03. Ritual At The Saurian Circle 05:03
04. Hour Of The Serpent 07:05
05. Mankind's Epitaph 01:49
06. In The Year 19XX 06:50
07. Cro-Magnon Combat 04:21
08. Cultist 06:56
09. Halls Of The Skeleton Lord 06:25
******************************
Total playing time: 47:29





Technical info
(IMG:http://metalarea.org/images/spectrogram/2018_May/13748571d28dfa32df2d749dfea56c04.png)
Input File: 02. Maneater Mildred.mp3
Channels : 2
Sample Rate : 44100
Precision : 16-bit
Duration : 00:04:38.65 = 12288377 samples = 20898.6 CDDA sectors
File Size : 11.3M
Bit Rate : 323k
Sample Encoding: MPEG audio (layer I, II or III)
Comments :
Title=Maneater Mildred
Artist=Children of the Reptile
Album=The End
Tracknumber=2/9
Year=2018



Register


Thanks:
Вернуться к началу страницы
  Insert nick Quick quote
+Цитировать сообщение
 
Создать новую тему
Replies (1 - 4)
post May 16 2018, 06:07:03
Post #2

MDM-Thrash Metal
**************
Group: Металариец
Posts: 6,672
Releases: 410
From: Одесса
On Forums: 10 years 9 months
Thanks: 12734 time(s)
Ukraine


Register
Вернуться к началу страницы
  Insert nick Quick quote
+Цитировать сообщение
post May 16 2018, 06:49:54
Post #3

Наливай!
**************
Group: Металариец
Posts: 4,975
Releases: 27
From: Москва-Бибирево
On Forums: 10 years 2 months
Thanks: 2297 time(s)
Russian Federation


Вернуться к началу страницы
  Insert nick Quick quote
+Цитировать сообщение
post May 16 2018, 07:52:44
Post #4

hearer & reader
**************
Group: Металариец
Posts: 6,216
Releases: 81
From: Moscow
On Forums: 10 years 8 months
Thanks: 6368 time(s)
Russian Federation


Надо бы прицепить к стилю "Hard rock" и/или "Melodic"
Вернуться к началу страницы
  Insert nick Quick quote
+Цитировать сообщение
post May 16 2018, 12:39:15
Post #5

MDM-Thrash Metal
**************
Group: Металариец
Posts: 6,672
Releases: 410
From: Одесса
On Forums: 10 years 9 months
Thanks: 12734 time(s)
Ukraine


и олд скул в добавок
Вернуться к началу страницы
  Insert nick Quick quote
+Цитировать сообщение

ОтветитьСоздать новую тему
1 User(s) are reading this topic (1 Guests and 0 Anonymous Users)
0 Members:

 



- Lo-Fi Version Support form
Copyrights and abuse reports form
Time is now: 24th May 2018 - 07:18:54