Welcome Guest ( Log In | Register )

 
ОтветитьСоздать новую тему
> Rectus - Negeri Hitam (2017), Technical Death Metal
post May 15 2018, 16:23:20
Post #1

Маньяк
**********
Group: Металариец
Posts: 1,081
Releases: 900
From: Одесса
On Forums: 9 years 11 months
Thanks: 7002 time(s)
Ukraine


(IMG:http://metalarea.org/images/audiocovers/2018_May/acov_tid305961_thumb.jpg)

*Artist: Rectus
*Album: Negeri Hitam
*Year: 2017
*Genre: Technical Death Metal
*Country: Indonesia (IMG:http://metalarea.org/forum/style_images/flags/Indonesia.png)
*Format: mp3@CBR128kbps (IMG:http://metalarea.org/images/bit_low.gif)
*Size: 73MB

Tracklist:
1. Intimidasi 04:39
2. You Must Killed by My Hands 08:05
3. Damned Corruptor 03:18
4. Juru Selamat (Sin Offering cover) 05:18
5. Sumbu Pendek Penthol Korek 02:23
6. Beloved of Sancity 06:53
7. Destruction 04:53
8. Perang Dunia Kelam 10:30
9. Jancoxxxraimu 04:00
10. Akhirat Bukan Ilusi (Sin Offering cover) 05:33
11. War Soul 02:33
12. Negeri Hitam 06:24
13. Rimba Kutukan 07:38
14. Ambilkan Bulan Bu 04:03
******************************
Total playing time: 1:16:10



Extended info
Line - up:

Arwan Virgothic - Everything (ex-Tragedy Kereta Jenazah)

(IMG:https://f4.bcbits.com/img/0008985929_10.jpg)


Technical info
(IMG:http://metalarea.org/images/spectrogram/2018_May/e8d972d1eb43a3c19d2d6fac1a9a1df8.png)
Input File: 01 - Intimidasi.mp3
Channels : 2
Sample Rate : 44100
Precision : 16-bit
Duration : 00:04:39.81 = 12339489 samples = 20985.5 CDDA sectors
File Size : 4.54M
Bit Rate : 130k
Sample Encoding: MPEG audio (layer I, II or III)
Comments :
Title=Intimidasi
Artist=Rectus
Album=Negeri Hitam
Tracknumber=01
Year=2017
Genre=Technical Death Metal



Register


Thanks:
Вернуться к началу страницы
  Insert nick Quick quote
+Цитировать сообщение

ОтветитьСоздать новую тему
1 User(s) are reading this topic (1 Guests and 0 Anonymous Users)
0 Members:

 



- Lo-Fi Version Support form
Copyrights and abuse reports form
Time is now: 24th May 2018 - 07:06:56