Welcome Guest ( Log In | Register )

 
Reply to this topicStart new topic
> Red Bible Black - Allah Is Satan's Toy [ep] (2017), Death Metal
post May 15 2018, 16:43:30
Post #1

Маньяк
**********
Group: Металариец
Posts: 1,398
Releases: 1186
From: Одесса
On Forums: 10 years 3 months
Thanks: 9225 time(s)
Ukraine


(IMG:http://metalarea.org/images/audiocovers/2018_May/acov_tid305962_thumb.jpg)

*Artist: Red Bible Black
*Album: Allah Is Satan's Toy [ep]
*Year: 2017
*Genre: Death Metal
*Country: Italy (IMG:http://metalarea.org/forum/style_images/flags/Italy.png)
*Format: mp3@CBR320kbps
*Size: 48MB

Tracklist:
1. Allah Is Satan's Toy 02:12
2. Pedophilic Baptism 02:34
3. Antibirth 11: Rape Your Mom 03:01
4. Dark Skinned Children Are for Burning 04:24
5. Promote, Support and Glorify Hatred 01:50
6. In This Beautiful Existence 06:31
******************************
Total playing time: 20:32



Extended info
Line - up:

P.C. Odio - Guitars, Bass (Funeral of God, In League with Satan, Mincer, Septulchu, The Worst, ex-Wormphilism)
Emir Toğrul - Vocals, Drums (Funeral of God, Peosphoros, Viranesir, Yayla, ex-Blliigghhtted, ex-Destroyers of History)


Technical info
(IMG:http://metalarea.org/images/spectrogram/2018_May/810022f783c134a35bf6a8139c7f712f.png)
Input File: 03. Antibirth 11 Rape Your Mom.mp3
Channels : 2
Sample Rate : 48000
Precision : 16-bit
Duration : 00:03:01.16 = 8695440 samples ~ 13586.6 CDDA sectors
File Size : 7.25M
Bit Rate : 320k
Sample Encoding: MPEG audio (layer I, II or III)
Comments :
Title=Antibirth 11: Rape Your Mom
Artist=Red Bible Black
Album=Allah Is Satan's Toy (EP)
Tracknumber=3
Year=2017
Genre=22



Register


Go to the top of the page
  Insert nick Quick quote
+Quote Post

Reply to this topicStart new topic
2 User(s) are reading this topic (2 Guests and 0 Anonymous Users)
0 Members:

 



- Lo-Fi Version Support form
Copyrights and abuse reports form
Time is now: 19th September 2018 - 20:31:15