Welcome Guest ( Log In | Register )

 
Reply to this topicStart new topic
> Redshift Void - Traversing In All Directions [ep] (2017), Progressive Death Metal
post May 15 2018, 17:36:48
Post #1

Маньяк
**********
Group: Металариец
Posts: 1,455
Releases: 1240
From: Одесса
On Forums: 10 years 6 months
Thanks: 9711 time(s)
Ukraine


(IMG:http://metalarea.org/images/audiocovers/2018_May/acov_tid305963_thumb.jpg)

*Artist: Redshift Void
*Album: Traversing In All Directions [ep]
*Year: 2017
*Genre: Progressive Death Metal
*Country: United States (IMG:http://metalarea.org/forum/style_images/flags/United%20States.png)
*Format: mp3@CBR320kbps
*Size: 92MB

Tracklist:
1. Breathe 01:47 instrumental
2. Oclavus 10:18 instrumental
3. Terminus, the City of Ruins 04:58 instrumental
4. Traversing In All Directions 21:47 instrumental
******************************
Total playing time: 38:50



Extended info
Line - up:
Noah Brook - Guitars
Nathan Ekkens - Guitars, Programming

Guest/Session:
Skyler Hamilton - Guitar solo (track 2)

(IMG:https://www.metal-archives.com/images/3/5/4/0/3540435739_photo.jpg?2413)


Technical info
(IMG:http://metalarea.org/images/spectrogram/2018_May/e3ff9ce3dc8a689c81cce27916a6f40a.png)
Input File: 03. Terminus, The City Of Ruins.mp3
Channels : 2
Sample Rate : 48000
Precision : 16-bit
Duration : 00:04:58.80 = 14342544 samples ~ 22410.2 CDDA sectors
File Size : 12.0M
Bit Rate : 320k
Sample Encoding: MPEG audio (layer I, II or III)
Comments :
Title=Terminus, The City Of Ruins
Artist=Redshift Void
Album=Traversing In All Directions (EP)
Tracknumber=3
Year=2017
Genre=Progressive Death Metal



Register


Go to the top of the page
  Insert nick Quick quote
+Quote Post

Reply to this topicStart new topic
1 User(s) are reading this topic (1 Guests and 0 Anonymous Users)
0 Members:

 



- Lo-Fi Version Support form
Copyrights and abuse reports form
Time is now: 12th December 2018 - 00:26:03