Welcome Guest ( Log In | Register )

 
Reply to this topicStart new topic
> Regorge - Devoured By Parasites (2017), Death Metal (D4)
post May 15 2018, 18:52:39
Post #1

Маньяк
**********
Group: Металариец
Posts: 1,256
Releases: 1051
From: Одесса
On Forums: 10 years 1 month
Thanks: 8233 time(s)
Ukraine


(IMG:http://metalarea.org/images/audiocovers/2018_May/acov_tid305964_thumb.jpg)

*Artist: Regorge
*Album: Devoured By Parasites
*Year: 2017
*Genre: Death Metal
*Country: Brazil (IMG:http://metalarea.org/forum/style_images/flags/Brazil.png)
*Format: mp3@CBR128kbps (IMG:http://metalarea.org/images/bit_low.gif)
*Size: 39MB

Tracklist:
1. Intro Nightmare 02:49
2. Aborted 03:10
3. Against the World 02:44
4. Devoured by Parasites 03:46
5. Lord of the Lost Souls 03:36
6. Drilling of the Pregnant Uterus 03:42
7. Fascinated by Pussy 03:09
8. Silent for Hape 01:32
9. Blood Ritual of Zombies 05:15
10. The Molester Corpses 02:52
11. Fetal Vomit 03:16
12. Hospice Visit 04:09
******************************
Total playing time: 40:00



Extended info
Line - up:

Odailton - Bass (Blaspherion, ex-Short Thrash)
Beto Demented Retarded - Drums, Vocals (Putrefying Dead Flesh)
Marcelo Putrid - Vocals
Indio Larock - Guitars
Alex Morbid Grinder - Guitars

(IMG:https://www.metal-archives.com/images/1/3/0/5/13056_photo.jpg?3621)


Technical info
(IMG:http://metalarea.org/images/spectrogram/2018_May/997063656be611798fb2a1411c8f8827.png)
Input File: 03 Against The World.mp3
Channels : 2
Sample Rate : 44100
Precision : 16-bit
Duration : 00:02:44.51 = 7254935 samples = 12338.3 CDDA sectors
File Size : 2.64M
Bit Rate : 128k
Sample Encoding: MPEG audio (layer I, II or III)
Comments :
Title=Against The World
Artist=Regorge
Album=Devoured By Parasites
Tracknumber=3
Year=2017
Genre=22



Register


Thanks:
Go to the top of the page
  Insert nick Quick quote
+Quote Post

Reply to this topicStart new topic
1 User(s) are reading this topic (1 Guests and 0 Anonymous Users)
0 Members:

 



- Lo-Fi Version Support form
Copyrights and abuse reports form
Time is now: 23rd July 2018 - 16:39:25