Welcome Guest ( Log In | Register )

 
ОтветитьСоздать новую тему
> Ordo Malum - Ordo Malum [ep] (2018), Black Metal
post May 15 2018, 19:30:22
Post #1

𝕻𝕬𝕹𝕬𝕮𝕰𝕬
******
Group: Металариец
Posts: 531
Releases: 303
On Forums: 5 years 11 months
Thanks: 3967 time(s)
Unknown


(IMG:http://metalarea.org/images/audiocovers/2018_May/acov_tid305965_thumb.jpg)

*Artist: Ordo Malum
*Album: Ordo Malum [ep]
*Year: 2018
*Genre: Black Metal
*Country: Romania (IMG:http://metalarea.org/forum/style_images/flags/Romania.png)
*Format: mp3@CBR320kbps
*Size: 43MB

Tracklist:
1. Infinite Darkness (Intro) 02:33
2. Cataclysm Conjuration 03:29
3. The Black Blight 03:22
4. Treacherous Will 02:51
5. Death In Ashes 03:23
6. Chaos And War (Outro) 02:43
******************************
Total playing time: 18:21



Technical info
(IMG:http://metalarea.org/images/spectrogram/2018_May/ec341f64d776bac1b3d61f1b7f1b3b20.png)
Input File: 02 - Cataclysm Conjuration.mp3
Channels : 2
Sample Rate : 44100
Precision : 16-bit
Duration : 00:03:29.68 = 9246932 samples = 15726.1 CDDA sectors
File Size : 8.51M
Bit Rate : 325k
Sample Encoding: MPEG audio (layer I, II or III)
Comments :
Title=Cataclysm Conjuration
Artist=Ordo Malum
Album=Ordo Malum
Tracknumber=2
Year=2018
Genre=Black Metal



Register


Вернуться к началу страницы
  Insert nick Quick quote
+Цитировать сообщение

ОтветитьСоздать новую тему
1 User(s) are reading this topic (1 Guests and 0 Anonymous Users)
0 Members:

 



- Lo-Fi Version Support form
Copyrights and abuse reports form
Time is now: 24th May 2018 - 06:58:36