Welcome Guest ( Log In | Register )

 
Reply to this topicStart new topic
> Annihilism - Ultimate Void (2018), Black/Death Metal
post May 15 2018, 19:33:11
Post #1

𝕻𝕬𝕹𝕬𝕮𝕰𝕬
******
Group: Металариец
Posts: 573
Releases: 327
On Forums: 6 years 3 months
Thanks: 4407 time(s)
Unknown


(IMG:http://metalarea.org/images/audiocovers/2018_May/acov_tid305966_thumb.jpg)

*Artist: Annihilism
*Album: Ultimate Void
*Year: 2018
*Genre: Black/Death Metal
*Country: Germany (IMG:http://metalarea.org/forum/style_images/flags/Germany.png)
*Format: mp3@CBR320kbps
*Size: 137MB

Tracklist:
1. Shunyata 05:54
2. Silence Unmasked 04:44
3. Escapathy 03:11
4. Lucid Entity 02:55
5. Genethic Law 04:32
6. Conscious Microverse 03:33
7. Determined 03:21
8. Brittle Bliss 02:36
9. Walk Through The Mirror 05:48
10. Amor Fati 03:48
11. Soul Hunger 05:34
12. Deficient Beings (Bonus Track) 05:08
******************************
Total playing time: 51:04



Technical info
(IMG:http://metalarea.org/images/spectrogram/2018_May/e7fc2c0449e1bf0704969047587b2680.png)
Input File: 04 - Lucid Entity.mp3
Channels : 2
Sample Rate : 44100
Precision : 16-bit
Duration : 00:02:55.95 = 7759571 samples = 13196.5 CDDA sectors
File Size : 7.15M
Bit Rate : 325k
Sample Encoding: MPEG audio (layer I, II or III)
Comments :
Title=Lucid Entity
Artist=Annihilism
Album=Ultimate Void
Tracknumber=4
Year=2018
Genre=Black/Death Metal



Register


Go to the top of the page
  Insert nick Quick quote
+Quote Post

Reply to this topicStart new topic
1 User(s) are reading this topic (1 Guests and 0 Anonymous Users)
0 Members:

 



- Lo-Fi Version Support form
Copyrights and abuse reports form
Time is now: 24th September 2018 - 00:58:20