Welcome Guest ( Log In | Register )

> Releases Upload / Добавление релизов

Добавить релиз тут / Click here to add release
Рекомендованные обменники / Recommended file shares

 
ОтветитьСоздать новую тему
> After Death Alone - Overthinking About Ten Million Things [ep] (2018), Depressive Black Metal (D4)
post May 15 2018, 19:34:57
Post #1

𝕻𝕬𝕹𝕬𝕮𝕰𝕬
******
Group: Металариец
Posts: 531
Releases: 303
On Forums: 5 years 11 months
Thanks: 3967 time(s)
Unknown


(IMG:http://metalarea.org/images/audiocovers/2018_May/acov_tid305967_thumb.jpg)

*Artist: After Death Alone
*Album: Overthinking About Ten Million Things [ep]
*Year: 2018
*Genre: Depressive Black Metal
*Country: Greece (IMG:http://metalarea.org/forum/style_images/flags/Greece.png)
*Format: mp3@CBR320kbps
*Size: 22MB

Tracklist:
1. Overthinking About Ten Million Things 05:36
2. Painfully Rejected 03:56
******************************
Total playing time: 9:32



Technical info
(IMG:http://metalarea.org/images/spectrogram/2018_May/8618aad2a51f07d47b8ed85135bbef10.png)
Input File: 02 - Painfully Rejected.mp3
Channels : 2
Sample Rate : 44100
Precision : 16-bit
Duration : 00:03:56.49 = 10428989 samples = 17736.4 CDDA sectors
File Size : 9.50M
Bit Rate : 321k
Sample Encoding: MPEG audio (layer I, II or III)
Comments :
Title=Painfully Rejected
Artist=After Death Alone
Album=Overthinking About Ten Million Things
Tracknumber=2
Year=2018
Genre=Depressive Black Metal



Register


Вернуться к началу страницы
  Insert nick Quick quote
+Цитировать сообщение

ОтветитьСоздать новую тему
1 User(s) are reading this topic (1 Guests and 0 Anonymous Users)
0 Members:

 



- Lo-Fi Version Support form
Copyrights and abuse reports form
Time is now: 24th May 2018 - 07:17:16