Welcome Guest ( Log In | Register )

 
Reply to this topicStart new topic
> Besathett & After Death Alone & Death Is Painless - Besathett/After Death Alone/Death Is Painless [split] (2017), Depressive Black Metal
post May 15 2018, 19:36:53
Post #1

𝕻𝕬𝕹𝕬𝕮𝕰𝕬
******
Group: Металариец
Posts: 571
Releases: 326
On Forums: 6 years 3 months
Thanks: 4388 time(s)
Unknown


(IMG:http://metalarea.org/images/audiocovers/2018_May/acov_tid305968_thumb.jpg)

*Artist: Besathett & After Death Alone & Death Is Painless
*Album: Besathett/After Death Alone/Death Is Painless [split]
*Year: 2017
*Genre: Depressive Black Metal | Depressive Black Metal | Depressive Black Metal
*Country: France (IMG:http://metalarea.org/forum/style_images/flags/France.png) | Greece (IMG:http://metalarea.org/forum/style_images/flags/Greece.png) | Lebanon (IMG:http://metalarea.org/forum/style_images/flags/Lebanon.png)
*Format: mp3@CBR320kbps
*Size: 56MB

Tracklist:
Besathett:
1. White Dreams Of Innocence 02:57
2. Virelvinden Av Sjalar 03:28
3. The Tower And The Rotten Temple 03:43
After Death Alone:
4. Faded Lips 05:17
5. Tuberculosis 04:25
Death Is Painless:
6. Illusions Of Despair 04:23
******************************
Total playing time: 24:13



Technical info
(IMG:http://metalarea.org/images/spectrogram/2018_May/ef91c4f66be02e283ca163198d39dfb4.png)
Input File: 01 - Besathett - White Dreams Of Innocence.mp3
Channels : 2
Sample Rate : 44100
Precision : 16-bit
Duration : 00:02:57.65 = 7834453 samples = 13323.9 CDDA sectors
File Size : 7.21M
Bit Rate : 325k
Sample Encoding: MPEG audio (layer I, II or III)
Comments :
Title=White Dreams Of Innocence
Artist=Besathett
Album=Besathett - After Death Alone - Death Is Painless (Split 2017)
Tracknumber=1
Year=2017
Genre=Depressive Black Metal



Register


Go to the top of the page
  Insert nick Quick quote
+Quote Post

Reply to this topicStart new topic
2 User(s) are reading this topic (2 Guests and 0 Anonymous Users)
0 Members:

 



- Lo-Fi Version Support form
Copyrights and abuse reports form
Time is now: 19th September 2018 - 19:16:57