Welcome Guest ( Log In | Register )

> Wrecklamation - Violent Reflections [ep] (2018), Progressive Thrash Metal
post May 15 2018, 20:13:45
Post #1

Правь статус, ####!111
**************
Group: Металариец
Posts: 13,693
Releases: 9592
From: Г.Харьков
On Forums: 6 years 2 months
Thanks: 157315 time(s)
Unknown


(IMG:http://metalarea.org/images/audiocovers/2018_May/acov_tid305969_thumb.jpg)

*Artist: Wrecklamation
*Album: Violent Reflections [ep]
*Year: 2018
*Genre: Progressive Thrash Metal
*Country: United States (IMG:http://metalarea.org/forum/style_images/flags/United%20States.png)
*Format: mp3@CBR320kbps
*Size: 59MB

Tracklist:
01. The Curse of Obsession
02. S.A.L.O.C.
03. The Ones Above
04. Blood Betrayal
05. Hounds of War
******************************
Total playing time: 27:14




Extended info
Sam Olds - Vocals
Jacob Reiser - Lead Guitar/Backup Vocals
Wade Crossno - Rhythm Guitar
Charlie Morice - Drums
Stephen Brooks - Bass Guitar


Technical info
(IMG:http://metalarea.org/images/spectrogram/2018_May/20b87d1d89db031e3744a78abff8f4b2.png)
Input File: 1 The Curse of Obsession.mp3
Channels : 2
Sample Rate : 44100
Precision : 16-bit
Duration : 00:06:13.07 = 16452211 samples = 27980 CDDA sectors
File Size : 15.0M
Bit Rate : 322k
Sample Encoding: MPEG audio (layer I, II or III)
Comments :
Title=The Curse of Obsession
Artist=Wrecklamation
Album=Violent Reflections
Tracknumber=1/5
Year=2018
Genre=9
Discnumber=1/1



Register


Go to the top of the page
  Insert nick Quick quote
+Quote Post
 
Start new topic
Replies (1 - 1)
post May 16 2018, 07:42:17
Post #2

hearer & reader
**************
Group: Металариец
Posts: 6,533
Releases: 83
From: Moscow
On Forums: 10 years 10 months
Thanks: 6470 time(s)
Russian Federation


Progressive?
Не надо было бодаться с Эстетом. Вот, заразился..


Thanks:
Go to the top of the page
  Insert nick Quick quote
+Quote Post

Reply to this topicStart new topic
1 User(s) are reading this topic (1 Guests and 0 Anonymous Users)
0 Members:

 



- Lo-Fi Version Support form
Copyrights and abuse reports form
Time is now: 22nd July 2018 - 06:13:15