Welcome Guest ( Log In | Register )

> Umbrälia - The Dark Path (2018), Progressive Death Metal
post May 15 2018, 20:24:46
Post #1

Аннигилятор пивА
Group Icon
Group: V.I.P
Posts: 48,917
Releases: 14980
From: Koenigsberg - TILZIT
On Forums: 12 years 3 months
Thanks: 327964 time(s)
Russian Federation


(IMG:https://metalarea.org/images/audiocovers/2018_May/acov_tid305970_thumb.jpg)

*Artist: Umbrälia
*Album: The Dark Path
*Year: 2018
*Genre: Progressive Death Metal
*Country: Mexico (IMG:https://metalarea.org/forum/style_images/flags/Mexico.png)
*Format: mp3@CBR320kbps
*Size: 113MB

Tracklist:
1. Prelude to Insanity 04:38
2. Truth of Thorns 08:13
3. When the Lies are Real 04:15
4. Dominion 04:41
5. Near Collapse 05:15
6. Injured 05:33
7. The Defeated 06:53
8. Satan 09:39
******************************
Total playing time: 49:07




Extended info
Alÿ - Lead & Rythm Guitars / Keyboards / Ukulele
Jorge "El Piolo" Soria - Bass Guitars
Alfonso "Mr. Blast" Sánchez- Drums
Saba Madrid - Vocals


Technical info
(IMG:https://metalarea.org/images/spectrogram/2018_May/8c9c1e7f7d7ee9534f7bec152d229856.png)
Input File: 03 When the Lies Are Real.mp3
Channels : 2
Sample Rate : 44100
Precision : 16-bit
Duration : 00:04:16.05 = 11291937 samples = 19204 CDDA sectors
File Size : 10.3M
Bit Rate : 322k
Sample Encoding: MPEG audio (layer I, II or III)
Comments :
Title=When the Lies Are Real
Artist=Umbrälia
Album=The Dark Path
Tracknumber=3/8
Year=2018
Genre=9
Discnumber=1/1



Register


Go to the top of the page
  Insert nick Quick quote
+Quote Post
 
Start new topic
Replies (1 - 1)
post May 16 2018, 04:43:58
Post #2

Аннигилятор пивА
Group Icon
Group: V.I.P
Posts: 48,917
Releases: 14980
From: Koenigsberg - TILZIT
On Forums: 12 years 3 months
Thanks: 327964 time(s)
Russian Federation


mirror
Register




Go to the top of the page
  Insert nick Quick quote
+Quote Post

Reply to this topicStart new topic
2 User(s) are reading this topic (2 Guests and 0 Anonymous Users)
0 Members:

 



- Lo-Fi Version Support form
Copyrights and abuse reports form
Time is now: 24th September 2018 - 23:17:30